  0
SECTION
  2
HEADER
  9
$ACADVER
  1
AC1014
  9
$ACADMAINTVER
 70
               6
  9
$DWGCODEPAGE
  3
ANSI_1252
  9
$INSBASE
 10
0.0
 20
0.0
 30
0.0
  9
$EXTMIN
 10
0.9947444216859367
 20
0.9539711688817079
 30
-0.0015258207003583
  9
$EXTMAX
 10
209.03621205561103
 20
296.06653324413628
 30
0.0000000349246037
  9
$LIMMIN
 10
0.0
 20
0.0
  9
$LIMMAX
 10
420.0
 20
297.0
  9
$ORTHOMODE
 70
               1
  9
$REGENMODE
 70
               1
  9
$FILLMODE
 70
               1
  9
$QTEXTMODE
 70
               0
  9
$MIRRTEXT
 70
               1
  9
$DRAGMODE
 70
               2
  9
$LTSCALE
 40
0.4
  9
$OSMODE
 70
               0
  9
$ATTMODE
 70
               1
  9
$TEXTSIZE
 40
2.5
  9
$TRACEWID
 40
1.0
  9
$TEXTSTYLE
  7
STANDARD
  9
$CLAYER
  8
0
  9
$CELTYPE
  6
CONTINUOUS
  9
$CECOLOR
 62
               7
  9
$CELTSCALE
 40
1.0
  9
$DELOBJ
 70
               1
  9
$DISPSILH
 70
               0
  9
$DIMSCALE
 40
1.0
  9
$DIMASZ
 40
3.7200000000000002
  9
$DIMEXO
 40
0.0
  9
$DIMDLI
 40
7.0
  9
$DIMRND
 40
0.0
  9
$DIMDLE
 40
0.0
  9
$DIMEXE
 40
1.5
  9
$DIMTP
 40
0.0
  9
$DIMTM
 40
0.0
  9
$DIMTXT
 40
3.5
  9
$DIMCEN
 40
0.0
  9
$DIMTSZ
 40
0.0
  9
$DIMTOL
 70
               0
  9
$DIMLIM
 70
               0
  9
$DIMTIH
 70
               0
  9
$DIMTOH
 70
               0
  9
$DIMSE1
 70
               0
  9
$DIMSE2
 70
               0
  9
$DIMTAD
 70
               1
  9
$DIMZIN
 70
               8
  9
$DIMBLK
  1

  9
$DIMASO
 70
               1
  9
$DIMSHO
 70
               1
  9
$DIMPOST
  1

  9
$DIMAPOST
  1
"
  9
$DIMALT
 70
               0
  9
$DIMALTD
 70
               2
  9
$DIMALTF
 40
0.0393700787401575
  9
$DIMLFAC
 40
1.0
  9
$DIMTOFL
 70
               1
  9
$DIMTVP
 40
0.0
  9
$DIMTIX
 70
               0
  9
$DIMSOXD
 70
               0
  9
$DIMSAH
 70
               1
  9
$DIMBLK1
  1
_OPEN15
  9
$DIMBLK2
  1
_OPEN15
  9
$DIMSTYLE
  2
PHOENIX
  9
$DIMCLRD
 70
               1
  9
$DIMCLRE
 70
               1
  9
$DIMCLRT
 70
               5
  9
$DIMTFAC
 40
0.6666666666666666
  9
$DIMGAP
 40
1.0
  9
$DIMJUST
 70
               0
  9
$DIMSD1
 70
               0
  9
$DIMSD2
 70
               0
  9
$DIMTOLJ
 70
               1
  9
$DIMTZIN
 70
               8
  9
$DIMALTZ
 70
               0
  9
$DIMALTTZ
 70
               0
  9
$DIMFIT
 70
               0
  9
$DIMUPT
 70
               1
  9
$DIMUNIT
 70
               2
  9
$DIMDEC
 70
               6
  9
$DIMTDEC
 70
               6
  9
$DIMALTU
 70
               2
  9
$DIMALTTD
 70
               2
  9
$DIMTXSTY
  7
STANDARD
  9
$DIMAUNIT
 70
               0
  9
$LUNITS
 70
               2
  9
$LUPREC
 70
               4
  9
$SKETCHINC
 40
1.0
  9
$FILLETRAD
 40
0.0
  9
$AUNITS
 70
               0
  9
$AUPREC
 70
               0
  9
$MENU
  1
.
  9
$ELEVATION
 40
0.0
  9
$PELEVATION
 40
0.0
  9
$THICKNESS
 40
0.0
  9
$LIMCHECK
 70
               0
  9
$BLIPMODE
 70
               1
  9
$CHAMFERA
 40
10.0
  9
$CHAMFERB
 40
10.0
  9
$CHAMFERC
 40
0.0
  9
$CHAMFERD
 40
0.0
  9
$SKPOLY
 70
               0
  9
$TDCREATE
 40
2450939.457951910
  9
$TDUPDATE
 40
2453227.451925810
  9
$TDINDWG
 40
0.0242309838
  9
$TDUSRTIMER
 40
0.0242309838
  9
$USRTIMER
 70
               1
  9
$ANGBASE
 50
0.0
  9
$ANGDIR
 70
               0
  9
$PDMODE
 70
               0
  9
$PDSIZE
 40
-2.0
  9
$PLINEWID
 40
0.0
  9
$COORDS
 70
               0
  9
$SPLFRAME
 70
               0
  9
$SPLINETYPE
 70
               6
  9
$SPLINESEGS
 70
               8
  9
$ATTDIA
 70
               0
  9
$ATTREQ
 70
               1
  9
$HANDLING
 70
               1
  9
$HANDSEED
  5
5795
  9
$SURFTAB1
 70
               6
  9
$SURFTAB2
 70
               6
  9
$SURFTYPE
 70
               6
  9
$SURFU
 70
               6
  9
$SURFV
 70
               6
  9
$UCSNAME
  2

  9
$UCSORG
 10
0.0
 20
0.0
 30
0.0
  9
$UCSXDIR
 10
1.0
 20
0.0
 30
0.0
  9
$UCSYDIR
 10
0.0
 20
1.0
 30
0.0
  9
$PUCSNAME
  2

  9
$PUCSORG
 10
0.0
 20
0.0
 30
0.0
  9
$PUCSXDIR
 10
1.0
 20
0.0
 30
0.0
  9
$PUCSYDIR
 10
0.0
 20
1.0
 30
0.0
  9
$USERI1
 70
               0
  9
$USERI2
 70
               0
  9
$USERI3
 70
               0
  9
$USERI4
 70
               0
  9
$USERI5
 70
               0
  9
$USERR1
 40
0.0
  9
$USERR2
 40
0.0
  9
$USERR3
 40
0.0
  9
$USERR4
 40
0.0
  9
$USERR5
 40
0.0
  9
$WORLDVIEW
 70
               1
  9
$SHADEDGE
 70
               3
  9
$SHADEDIF
 70
              70
  9
$TILEMODE
 70
               1
  9
$MAXACTVP
 70
              16
  9
$PINSBASE
 10
0.0
 20
0.0
 30
0.0
  9
$PLIMCHECK
 70
               0
  9
$PEXTMIN
 10
1.0000000000000000E+20
 20
1.0000000000000000E+20
 30
1.0000000000000000E+20
  9
$PEXTMAX
 10
-1.0000000000000000E+20
 20
-1.0000000000000000E+20
 30
-1.0000000000000000E+20
  9
$PLIMMIN
 10
0.0
 20
0.0
  9
$PLIMMAX
 10
420.0
 20
297.0
  9
$UNITMODE
 70
               0
  9
$VISRETAIN
 70
               0
  9
$PLINEGEN
 70
               1
  9
$PSLTSCALE
 70
               1
  9
$TREEDEPTH
 70
            3020
  9
$PICKSTYLE
 70
               1
  9
$CMLSTYLE
  2
STANDARD
  9
$CMLJUST
 70
               0
  9
$CMLSCALE
 40
1.0
  9
$PROXYGRAPHICS
 70
               1
  9
$MEASUREMENT
 70
               0
  0
ENDSEC
  0
SECTION
  2
CLASSES
  0
CLASS
  1
PH_VARS
  2
PhoenixVars
  3
PHOENIX7010
 90
        0
280
               0
281
               0
  0
CLASS
  1
ACMESCOPE
  2
AcMeScope
  3
ACME_MODULE_NAME
 90
        0
280
               0
281
               0
  0
CLASS
  1
ACMECOMMANDHISTORY
  2
AcMeCommandHistory
  3
ACME_MODULE_NAME
 90
        0
280
               0
281
               0
  0
CLASS
  1
AcRfInsAdjusterMgr
  2
AcRfInsAdjusterMgr
  3
ACME_MODULE_NAME
 90
    32768
280
               0
281
               0
  0
CLASS
  1
ACGREFMASTER
  2
AcGrefMaster
  3
"AcadRfServer"
 90
        0
280
               0
281
               0
  0
CLASS
  1
AmiMaster
  2
AmiMaster
  3
"AmiServices"
 90
        0
280
               0
281
               0
  0
CLASS
  1
ACASGREFMASTER
  2
AcAsGrefMaster
  3
"AutoSurfResolver"
 90
        0
280
               0
281
               0
  0
CLASS
  1
ADAPPL
  2
AcAdAppl
  3
DesignerServices
 90
        0
280
               0
281
               0
  0
CLASS
  1
DEPMGR
  2
AcAdDepMgr
  3
DesignerServices
 90
        0
280
               0
281
               0
  0
CLASS
  1
PARAMMGR
  2
AcAdParamMgr
  3
DesignerServices
 90
        0
280
               0
281
               0
  0
CLASS
  1
PARAMSCOPE
  2
AcAdParamScope
  3
DesignerServices
 90
        0
280
               0
281
               0
  0
CLASS
  1
"IM_SYSVAR_MAN"
  2
AcImSysVarManager
  3
"ADAM"
 90
        0
280
               0
281
               0
  0
CLASS
  1
SYSTEM_VAR_INT
  2
AcImIntSysVar
  3
"ADAM"
 90
        0
280
               0
281
               0
  0
CLASS
  1
SYSTEM_VAR_REAL
  2
AcImRealSysVar
  3
"ADAM"
 90
        0
280
               0
281
               0
  0
CLASS
  1
SYSTEM_VAR_STR
  2
AcImStrSysVar
  3
"ADAM"
 90
        0
280
               0
281
               0
  0
CLASS
  1
NAMEDAPPL
  2
AcAdNamedAppl
  3
DesignerServices
 90
        0
280
               0
281
               0
  0
CLASS
  1
ADPART
  2
AcAdPart
  3
DesignerServices
 90
    32768
280
               0
281
               1
  0
CLASS
  1
ADBASE
  2
AcAdBase
  3
DesignerServices
 90
        0
280
               0
281
               0
  0
CLASS
  1
BODYID
  2
AcAdBodyId
  3
DesignerServices
 90
        0
280
               0
281
               0
  0
CLASS
  1
WORKPLANEDISPLAYMGR
  2
AcAdDisplayMgr
  3
DesignerServices
 90
        0
280
               0
281
               0
  0
CLASS
  1
ADHNTMPLT
  2
AdHoleNoteTemplateMgr
  3
DesignerServices
 90
        0
280
               0
281
               0
  0
CLASS
  1
AM_HNTEMPLATE_MGR_NAME
  2
AdHoleNoteTemplateMgrName
  3
DesignerServices
 90
        0
280
               0
281
               0
  0
CLASS
  1
AcAdGrefModule
  2
AcAdGrefModule
  3
AD_GREF_SERVICES_NSTR
 90
        0
280
               0
281
               0
  0
CLASS
  1
AM_DRAWING_MGR
  2
AcDmDwgMgr
  3
AcMechDwgViewMgmt
 90
        0
280
               0
281
               0
  0
CLASS
  1
AM_DWG_DOCUMENT
  2
AcDmDwgDocument
  3
AcMechDwgViewMgmt
 90
        0
280
               0
281
               0
  0
CLASS
  1
AM_DWG_SHEET
  2
AcDmSheet
  3
AcMechDwgViewMgmt
 90
        0
280
               0
281
               0
  0
CLASS
  1
AM_VIEWDIMPARMAP
  2
AcDmViewDimParMap
  3
AcMechDwgViewMgmt
 90
        0
280
               0
281
               0
  0
CLASS
  1
AM_DWGMGR_NAME
  2
AcDmDwgMgrName
  3
AcMechDwgViewMgmt
 90
        0
280
               0
281
               0
  0
CLASS
  1
ACAMPROJECT
  2
AcAmProject
  3
DesignerAssemblies
 90
        0
280
               0
281
               0
  0
CLASS
  1
ACAMGRCOMPSET
  2
AcAmGrCompSet
  3
DesignerAssemblies
 90
    32768
280
               0
281
               0
  0
CLASS
  1
ACAMGRCOMPDEFSET
  2
AcAmGrCompDefSet
  3
DesignerAssemblies
 90
    32768
280
               0
281
               0
  0
CLASS
  1
ACAMGRCOMPDEF
  2
AcAmGrCompDef
  3
DesignerAssemblies
 90
        0
280
               0
281
               0
  0
CLASS
  1
ACAMCOMPDEF
  2
AcAmCompDef
  3
DesignerAssemblies
 90
        0
280
               0
281
               0
  0
CLASS
  1
ACAMCOMPDEFMGR
  2
AcAmCompDefMgr
  3
DesignerAssemblies
 90
        0
280
               0
281
               0
  0
CLASS
  1
AMCONTEXTMGR
  2
AcAmContextMgr
  3
DesignerAssemblies
 90
        0
280
               0
281
               0
  0
CLASS
  1
ACAMCONTEXTMODELER
  2
AcAmContextModeler
  3
DesignerAssemblies
 90
        0
280
               0
281
               0
  0
CLASS
  1
ACAMDRAWINGMAN
  2
AcAmDrawingMan
  3
DesignerAssemblies
 90
        0
280
               0
281
               0
  0
CLASS
  1
ACDMVIEWGEOM
  2
AcDmViewGeometry
  3
AcMechDwgViewMgmt
 90
    32768
280
               0
281
               1
  0
CLASS
  1
ASSYSVARS
  2
AcAsSysVars
  3
"AutoSurf"
 90
        0
280
               0
281
               0
  0
CLASS
  1
ASSTATICVARS
  2
AcAsStaticVars
  3
"AutoSurf"
 90
    32768
280
               0
281
               0
  0
CLASS
  1
ASAPP
  2
AcAsAppObject
  3
"AutoSurf"
 90
        0
280
               0
281
               0
  0
CLASS
  1
AGDICTIONARY
  2
AgDictionary
  3
"AccelView"
 90
        0
280
               0
281
               0
  0
CLASS
  1
PH_ENTDIMREACTOR
  2
EntDimReactor
  3
PHOENIX7010
 90
        0
280
               0
281
               0
  0
CLASS
  1
PH_DIMENTREACTOR
  2
DimEntReactor
  3
PHOENIX7010
 90
        0
280
               0
281
               0
  0
CLASS
  1
ACDBDICTIONARYWDFLT
  2
AcDbDictionaryWithDefault
  3
"AutoCAD 2000"
 90
        1
280
               0
281
               0
  0
CLASS
  1
PH_GROUP
  2
PhGroup
  3
PHOENIX7010
 90
        0
280
               0
281
               0
  0
CLASS
  1
DICTIONARYVAR
  2
AcDbDictionaryVar
  3
"AutoCAD"
 90
        0
280
               0
281
               0
  0
CLASS
  1
ACDBPLACEHOLDER
  2
AcDbPlaceHolder
  3
"AutoCAD 2000"
 90
        1
280
               0
281
               0
  0
CLASS
  1
LAYOUT
  2
AcDbLayout
  3
"AutoCAD 2000"
 90
        1
280
               0
281
               0
  0
CLASS
  1
LWPOLYLINE
  2
AcDbPolyline
  3
"AutoCAD"
 90
        0
280
               0
281
               1
  0
CLASS
  1
IMAGE
  2
AcDbRasterImage
  3
ISM
 90
      127
280
               0
281
               1
  0
CLASS
  1
OLE2FRAME
  2
AcDbOle2Frame
  3
""
 90
        0
280
               0
281
               1
  0
CLASS
  1
HATCH
  2
AcDbHatch
  3
"ACAD_SEDONA"
 90
        0
280
               0
281
               1
  0
CLASS
  1
RASTERVARIABLES
  2
AcDbRasterVariables
  3
ISM
 90
        0
280
               0
281
               0
  0
CLASS
  1
IMAGEDEF
  2
AcDbRasterImageDef
  3
ISM
 90
        0
280
               0
281
               0
  0
CLASS
  1
IMAGEDEF_REACTOR
  2
AcDbRasterImageDefReactor
  3
ISM
 90
        1
280
               0
281
               0
  0
CLASS
  1
IDBUFFER
  2
AcDbIdBuffer
  3
"Acad"
 90
        0
280
               0
281
               0
  0
CLASS
  1
SPATIAL_FILTER
  2
AcDbSpatialFilter
  3
"Acad"
 90
        0
280
               0
281
               0
  0
CLASS
  1
XRECORD
  2
AcDbXrecord
  3
"<Built In>"
 90
        0
280
               0
281
               0
  0
CLASS
  1
SORTENTSTABLE
  2
AcDbSortentsTable
  3
"AutoCAD"
 90
        0
280
               0
281
               0
  0
CLASS
  1
LAYER_INDEX
  2
AcDbLayerIndex
  3
"Acad"
 90
        0
280
               0
281
               0
  0
CLASS
  1
SPATIAL_INDEX
  2
AcDbSpatialIndex
  3
"Acad"
 90
        0
280
               0
281
               0
  0
CLASS
  1
OBJECT_PTR
  2
CAseDLPNTableRecord
  3
"ASE-LPNTableRecord"
 90
        1
280
               0
281
               0
  0
CLASS
  1
PLOTSETTINGS
  2
AcDbPlotSettings
  3
"AutoCAD 2000"
 90
        1
280
               0
281
               0
  0
CLASS
  1
VBA_PROJECT
  2
AcDbVbaProject
  3
"acadvba"
 90
        1
280
               0
281
               0
  0
CLASS
  1
WIPEOUT
  2
AcDbWipeout
  3
WipeOut|AutoCAD Express Tool|expresstools@autodesk.com
 90
      127
280
               0
281
               1
  0
CLASS
  1
WIPEOUTVARIABLES
  2
AcDbWipeoutVariables
  3
WipeOut|AutoCAD Express Tool|expresstools@autodesk.com
 90
        0
280
               0
281
               0
  0
CLASS
  1
RTEXT
  2
RText
  3
RText|AutoCAD Express Tool|expresstools@autodesk.com
 90
        0
280
               0
281
               1
  0
CLASS
  1
ARCALIGNEDTEXT
  2
AcDbArcAlignedText
  3
ATEXT|AutoCAD Express Tool|expresstools@autodesk.com
 90
        0
280
               0
281
               1
  0
ENDSEC
  0
SECTION
  2
TABLES
  0
TABLE
  2
VPORT
  5
8
100
AcDbSymbolTable
 70
               1
  0
VPORT
  5
5765
100
AcDbSymbolTableRecord
100
AcDbViewportTableRecord
  2
*ACTIVE
 70
              64
 10
0.0
 20
0.0
 11
1.0
 21
1.0
 12
263.66800000000001
 22
153.16229955947125
 13
0.0
 23
0.0
 14
10.0
 24
10.0
 15
10.0
 25
10.0
 16
0.0
 26
0.0
 36
1.0
 17
0.0
 27
0.0
 37
0.0
 40
304.46223178375033
 41
1.7262357414448672
 42
50.0
 43
0.0
 44
0.0
 50
0.0
 51
0.0
 71
               0
 72
             800
 73
               1
 74
               3
 75
               0
 76
               0
 77
               0
 78
               0
  0
ENDTAB
  0
TABLE
  2
LTYPE
  5
5
100
AcDbSymbolTable
 70
              13
  0
LTYPE
  5
14
100
AcDbSymbolTableRecord
100
AcDbLinetypeTableRecord
  2
BYBLOCK
 70
              64
  3

 72
              65
 73
               0
 40
0.0
  0
LTYPE
  5
15
100
AcDbSymbolTableRecord
100
AcDbLinetypeTableRecord
  2
BYLAYER
 70
              64
  3

 72
              65
 73
               0
 40
0.0
  0
LTYPE
  5
16
100
AcDbSymbolTableRecord
100
AcDbLinetypeTableRecord
  2
CONTINUOUS
 70
              64
  3
Solid line
 72
              65
 73
               0
 40
0.0
  0
LTYPE
  5
A8
100
AcDbSymbolTableRecord
100
AcDbLinetypeTableRecord
  2
PHANTOM2
 70
              64
  3
___ _ _ ___ _ _ ___ _ _ ___ _ _ ___ _ _ ___ _ _
 72
              65
 73
               6
 40
1.25
 49
0.625
 74
               0
 49
-0.125
 74
               0
 49
0.125
 74
               0
 49
-0.125
 74
               0
 49
0.125
 74
               0
 49
-0.125
 74
               0
  0
LTYPE
  5
D5
100
AcDbSymbolTableRecord
100
AcDbLinetypeTableRecord
  2
ASULTYPE
 70
              64
  3
Ausgezogene Linie
 72
              65
 73
               2
 40
3.0
 49
2.5
 74
               0
 49
0.5
 74
               0
  0
LTYPE
  5
D6
100
AcDbSymbolTableRecord
100
AcDbLinetypeTableRecord
  2
ASVLTYPE
 70
              64
  3
__ __ __ __ __ __ __ __ __ __ __ __ __ __ __ __ __ __ __ __ __
 72
              65
 73
               2
 40
0.75
 49
0.5
 74
               0
 49
-0.25
 74
               0
  0
LTYPE
  5
D8
100
AcDbSymbolTableRecord
100
AcDbLinetypeTableRecord
  2
VERDECKT
 70
              64
  3
__ __ __ __ __ __ __ __ __ __ __ __ __ __ __ __
 72
              65
 73
               2
 40
0.375
 49
0.25
 74
               0
 49
-0.125
 74
               0
  0
LTYPE
  5
D9
100
AcDbSymbolTableRecord
100
AcDbLinetypeTableRecord
  2
MITTE
 70
              64
  3
____ _ ____ _ ____ _ ____ _ ____ _ ____ _ ____ 
 72
              65
 73
               4
 40
2.0
 49
1.25
 74
               0
 49
-0.25
 74
               0
 49
0.25
 74
               0
 49
-0.25
 74
               0
  0
LTYPE
  5
685
100
AcDbSymbolTableRecord
100
AcDbLinetypeTableRecord
  2
ACAD_ISO02W100
 70
              64
  3
__ __ __ __ __ __ __ __ __ __ __ __ __ __ __ __
 72
              65
 73
               2
 40
15.0
 49
12.0
 74
               0
 49
-3.0
 74
               0
  0
LTYPE
  5
686
100
AcDbSymbolTableRecord
100
AcDbLinetypeTableRecord
  2
ACAD_ISO04W100
 70
              64
  3
____ . ____ . ____ . ____ . ____ . ____ . ____ 
 72
              65
 73
               4
 40
30.5
 49
24.0
 74
               0
 49
-3.0
 74
               0
 49
0.5
 74
               0
 49
-3.0
 74
               0
  0
LTYPE
  5
687
100
AcDbSymbolTableRecord
100
AcDbLinetypeTableRecord
  2
ACAD_ISO05W100
 70
              64
  3
____ .. ____ .. ____ .. ____ .. ____ .. ____ ..
 72
              65
 73
               6
 40
34.0
 49
24.0
 74
               0
 49
-3.0
 74
               0
 49
0.5
 74
               0
 49
-3.0
 74
               0
 49
0.5
 74
               0
 49
-3.0
 74
               0
  0
LTYPE
  5
688
100
AcDbSymbolTableRecord
100
AcDbLinetypeTableRecord
  2
ACAD_ISO07W100
 70
              64
  3
. . . . . . . . . . . . . . . . . . . . . . . .
 72
              65
 73
               2
 40
3.5
 49
0.5
 74
               0
 49
-3.0
 74
               0
  0
LTYPE
  5
6C4
100
AcDbSymbolTableRecord
100
AcDbLinetypeTableRecord
  2
PH_FREIHAND
 70
              64
  3
/\/\/\/\/\/\/\/\/\/\/\/\/\
 72
              65
 73
               2
 40
4.0000999999999998
 49
0.0001
 74
               4
 75
             131
340
6C3
 46
1.0
 50
0.0
 44
0.0
 45
0.0
 49
-4.0
 74
               0
  0
ENDTAB
  0
TABLE
  2
LAYER
  5
2
100
AcDbSymbolTable
 70
              16
  0
LAYER
  5
F
100
AcDbSymbolTableRecord
100
AcDbLayerTableRecord
  2
0
 70
              64
 62
               7
  6
CONTINUOUS
  0
LAYER
  5
48
100
AcDbSymbolTableRecord
100
AcDbLayerTableRecord
  2
2
 70
              64
 62
               7
  6
CONTINUOUS
  0
LAYER
  5
4A
100
AcDbSymbolTableRecord
100
AcDbLayerTableRecord
  2
3
 70
              64
 62
               7
  6
CONTINUOUS
  0
LAYER
  5
B6
100
AcDbSymbolTableRecord
100
AcDbLayerTableRecord
  2
AM_VIEWS
 70
              64
 62
              -7
  6
CONTINUOUS
  0
LAYER
  5
B7
100
AcDbSymbolTableRecord
100
AcDbLayerTableRecord
  2
AM_PARDIM
 70
              64
 62
               3
  6
CONTINUOUS
  0
LAYER
  5
B8
100
AcDbSymbolTableRecord
100
AcDbLayerTableRecord
  2
AM_REFDIM
 70
              64
 62
               4
  6
CONTINUOUS
  0
LAYER
  5
B9
100
AcDbSymbolTableRecord
100
AcDbLayerTableRecord
  2
AM_VIS
 70
              64
 62
               7
  6
CONTINUOUS
  0
LAYER
  5
BA
100
AcDbSymbolTableRecord
100
AcDbLayerTableRecord
  2
AM_HID
 70
              64
 62
               7
  6
VERDECKT
  0
LAYER
  5
CB
100
AcDbSymbolTableRecord
100
AcDbLayerTableRecord
  2
AM_TR
 70
              64
 62
               7
  6
CONTINUOUS
  0
LAYER
  5
CC
100
AcDbSymbolTableRecord
100
AcDbLayerTableRecord
  2
AM_BM
 70
              64
 62
               7
  6
CONTINUOUS
  0
LAYER
  5
CD
100
AcDbSymbolTableRecord
100
AcDbLayerTableRecord
  2
AM_BL
 70
              64
 62
               7
  6
CONTINUOUS
  0
LAYER
  5
EB
100
AcDbSymbolTableRecord
100
AcDbLayerTableRecord
  2
DEFPOINTS
 70
              64
 62
               7
  6
CONTINUOUS
  0
LAYER
  5
689
100
AcDbSymbolTableRecord
100
AcDbLayerTableRecord
  2
HAUPTEBENE
 70
              64
 62
               7
  6
CONTINUOUS
  0
LAYER
  5
6CA
100
AcDbSymbolTableRecord
100
AcDbLayerTableRecord
  2
BEMASSUNG
 70
              64
 62
               7
  6
CONTINUOUS
  0
LAYER
  5
735
100
AcDbSymbolTableRecord
100
AcDbLayerTableRecord
  2
STUECKLISTENTEXT
 70
              64
 62
               7
  6
CONTINUOUS
  0
LAYER
  5
305B
100
AcDbSymbolTableRecord
100
AcDbLayerTableRecord
  2
PH_HILFSELEMENTE
 70
              64
 62
              -7
  6
CONTINUOUS
  0
ENDTAB
  0
TABLE
  2
STYLE
  5
3
100
AcDbSymbolTable
 70
               2
  0
STYLE
  5
10
100
AcDbSymbolTableRecord
100
AcDbTextStyleTableRecord
  2
STANDARD
 70
              64
 40
0.0
 41
1.5
 50
0.0
 71
               0
 42
2.5
  3
ISOCP
  4

  0
STYLE
  5
6C3
100
AcDbSymbolTableRecord
100
AcDbTextStyleTableRecord
  2

 70
              65
 40
0.0
 41
1.5
 50
0.0
 71
               0
 42
2.5
  3
phoenix.shx
  4

  0
ENDTAB
  0
TABLE
  2
VIEW
  5
6
100
AcDbSymbolTable
 70
               0
  0
ENDTAB
  0
TABLE
  2
UCS
  5
7
100
AcDbSymbolTable
 70
               0
  0
ENDTAB
  0
TABLE
  2
APPID
  5
9
100
AcDbSymbolTable
 70
               6
  0
APPID
  5
11
100
AcDbSymbolTableRecord
100
AcDbRegAppTableRecord
  2
ACAD
 70
              64
  0
APPID
  5
32
100
AcDbSymbolTableRecord
100
AcDbRegAppTableRecord
  2
PHOENIX7010
 70
              64
  0
APPID
  5
B5
100
AcDbSymbolTableRecord
100
AcDbRegAppTableRecord
  2
AD_DRAW
 70
              64
  0
APPID
  5
CF
100
AcDbSymbolTableRecord
100
AcDbRegAppTableRecord
  2
DESIGNERASSEMBLIES
 70
              64
  0
APPID
  5
D1
100
AcDbSymbolTableRecord
100
AcDbRegAppTableRecord
  2
MCAD_NO_VIS
 70
              64
  0
APPID
  5
D7
100
AcDbSymbolTableRecord
100
AcDbRegAppTableRecord
  2
ASURF_PCURVE_APPNAME
 70
              64
  0
ENDTAB
  0
TABLE
  2
DIMSTYLE
  5
A
100
AcDbSymbolTable
 70
              10
  0
DIMSTYLE
105
1D
100
AcDbSymbolTableRecord
100
AcDbDimStyleTableRecord
  2
STANDARD
 70
              64
  3

  4

  5

  6

  7

 40
1.0
 41
0.18
 42
0.0625
 43
0.38
 44
0.18
 45
0.0
 46
0.0
 47
0.0
 48
0.0
 71
               0
 72
               0
 73
               1
 74
               1
 75
               0
 76
               0
 77
               0
 78
               0
140
0.18
141
0.09
142
0.0
143
25.399999999999999
144
1.0
145
0.0
146
1.0
147
0.09
170
               0
171
               2
172
               0
173
               0
174
               0
175
               0
176
               0
177
               0
178
               0
270
               2
271
               4
272
               4
273
               2
274
               2
275
               0
280
               0
281
               0
282
               0
283
               1
284
               0
285
               0
286
               0
287
               3
288
               0
340
10
  0
DIMSTYLE
105
24
100
AcDbSymbolTableRecord
100
AcDbDimStyleTableRecord
  2
ISO-25
 70
              64
  3

  4

  5

  6

  7

 40
1.0
 41
2.5
 42
0.625
 43
3.75
 44
1.25
 45
0.0
 46
0.0
 47
0.0
 48
0.0
 71
               0
 72
               0
 73
               1
 74
               0
 75
               0
 76
               0
 77
               1
 78
               8
140
2.5
141
2.5
142
0.0
143
0.0394
144
1.0
145
1.0
146
1.0
147
0.625
170
               0
171
               2
172
               1
173
               0
174
               0
175
               0
176
               0
177
               0
178
               0
270
               2
271
               4
272
               4
273
               2
274
               2
275
               0
280
               0
281
               0
282
               0
283
               1
284
               0
285
               0
286
               0
287
               3
288
               0
340
10
  0
DIMSTYLE
105
25
100
AcDbSymbolTableRecord
100
AcDbDimStyleTableRecord
  2
ISO-35
 70
              64
  3

  4

  5

  6

  7

 40
1.0
 41
3.5
 42
0.875
 43
5.25
 44
1.75
 45
0.0
 46
0.0
 47
0.0
 48
0.0
 71
               0
 72
               0
 73
               1
 74
               0
 75
               0
 76
               0
 77
               1
 78
               8
140
3.5
141
3.5
142
0.0
143
0.0394
144
1.0
145
1.3999999999999999
146
1.0
147
0.875
170
               0
171
               2
172
               1
173
               0
174
               0
175
               0
176
               0
177
               0
178
               0
270
               2
271
               4
272
               4
273
               2
274
               2
275
               0
280
               0
281
               0
282
               0
283
               1
284
               0
285
               0
286
               0
287
               3
288
               0
340
10
  0
DIMSTYLE
105
26
100
AcDbSymbolTableRecord
100
AcDbDimStyleTableRecord
  2
ISO-5
 70
              64
  3

  4

  5

  6

  7

 40
1.0
 41
5.0
 42
1.25
 43
7.5
 44
2.5
 45
0.0
 46
0.0
 47
0.0
 48
0.0
 71
               0
 72
               0
 73
               1
 74
               0
 75
               0
 76
               0
 77
               1
 78
               8
140
5.0
141
5.0
142
0.0
143
0.0394
144
1.0
145
2.0
146
1.0
147
1.25
170
               0
171
               2
172
               1
173
               0
174
               0
175
               0
176
               0
177
               0
178
               0
270
               2
271
               4
272
               4
273
               2
274
               2
275
               0
280
               0
281
               0
282
               0
283
               1
284
               0
285
               0
286
               0
287
               3
288
               0
340
10
  0
DIMSTYLE
105
27
100
AcDbSymbolTableRecord
100
AcDbDimStyleTableRecord
  2
ISO-7
 70
              64
  3

  4

  5

  6

  7

 40
1.0
 41
7.0
 42
1.75
 43
10.5
 44
3.5
 45
0.0
 46
0.0
 47
0.0
 48
0.0
 71
               0
 72
               0
 73
               1
 74
               0
 75
               0
 76
               0
 77
               1
 78
               8
140
7.0
141
7.0
142
0.0
143
0.0394
144
1.0
145
2.7999999999999998
146
1.0
147
1.75
170
               0
171
               2
172
               1
173
               0
174
               0
175
               0
176
               0
177
               0
178
               0
270
               2
271
               4
272
               4
273
               2
274
               2
275
               0
280
               0
281
               0
282
               0
283
               1
284
               0
285
               0
286
               0
287
               3
288
               0
340
10
  0
DIMSTYLE
105
28
100
AcDbSymbolTableRecord
100
AcDbDimStyleTableRecord
  2
ISO1
 70
              64
  3

  4

  5

  6

  7

 40
1.0
 41
10.0
 42
2.5
 43
15.0
 44
5.0
 45
0.0
 46
0.0
 47
0.0
 48
0.0
 71
               0
 72
               0
 73
               1
 74
               0
 75
               0
 76
               0
 77
               1
 78
               8
140
10.0
141
10.0
142
0.0
143
0.0394
144
1.0
145
4.0
146
1.0
147
2.5
170
               0
171
               2
172
               1
173
               0
174
               0
175
               0
176
               0
177
               0
178
               0
270
               2
271
               4
272
               4
273
               2
274
               2
275
               0
280
               0
281
               0
282
               0
283
               1
284
               0
285
               0
286
               0
287
               3
288
               0
340
10
  0
DIMSTYLE
105
29
100
AcDbSymbolTableRecord
100
AcDbDimStyleTableRecord
  2
ISO1-4
 70
              64
  3

  4

  5

  6

  7

 40
1.0
 41
14.0
 42
3.5
 43
21.0
 44
7.0
 45
0.0
 46
0.0
 47
0.0
 48
0.0
 71
               0
 72
               0
 73
               1
 74
               0
 75
               0
 76
               0
 77
               1
 78
               8
140
14.0
141
14.0
142
0.0
143
0.0394
144
1.0
145
5.5999999999999996
146
1.0
147
3.5
170
               0
171
               2
172
               1
173
               0
174
               0
175
               0
176
               0
177
               0
178
               0
270
               2
271
               4
272
               4
273
               2
274
               2
275
               0
280
               0
281
               0
282
               0
283
               1
284
               0
285
               0
286
               0
287
               3
288
               0
340
10
  0
DIMSTYLE
105
2A
100
AcDbSymbolTableRecord
100
AcDbDimStyleTableRecord
  2
ISO2
 70
              64
  3

  4

  5

  6

  7

 40
1.0
 41
20.0
 42
5.0
 43
30.0
 44
10.0
 45
0.0
 46
0.0
 47
0.0
 48
0.0
 71
               0
 72
               0
 73
               1
 74
               0
 75
               0
 76
               0
 77
               1
 78
               8
140
20.0
141
20.0
142
0.0
143
0.0394
144
1.0
145
8.0
146
1.0
147
5.0
170
               0
171
               2
172
               1
173
               0
174
               0
175
               0
176
               0
177
               0
178
               0
270
               2
271
               4
272
               4
273
               2
274
               2
275
               0
280
               0
281
               0
282
               0
283
               1
284
               0
285
               0
286
               0
287
               3
288
               0
340
10
  0
DIMSTYLE
105
33
102
{ACAD_REACTORS
330
BFC
330
BFD
330
C04
330
C05
330
3FD6
330
47EA
102
}
100
AcDbSymbolTableRecord
100
AcDbDimStyleTableRecord
  2
PHOENIX
 70
              64
  3

  4
"
  5

  6
_OPEN15
  7
_OPEN15
 40
1.0
 41
3.7200000000000002
 42
0.0
 43
7.0
 44
1.5
 45
0.0
 46
0.0
 47
0.0
 48
0.0
 71
               0
 72
               0
 73
               0
 74
               0
 75
               0
 76
               0
 77
               1
 78
               8
140
3.5
141
0.0
142
0.0
143
0.0393700787401575
144
1.0
145
0.0
146
0.6666666666666666
147
2.0
170
               0
171
               2
172
               1
173
               1
174
               0
175
               0
176
               1
177
               1
178
               5
270
               2
271
               2
272
               2
273
               2
274
               2
275
               0
280
               0
281
               0
282
               0
283
               1
284
               8
285
               0
286
               0
287
               0
288
               1
340
10
  0
DIMSTYLE
105
34
100
AcDbSymbolTableRecord
100
AcDbDimStyleTableRecord
  2
PHOENIX$4
 70
              64
  3

  4
"
  5

  6
_OPEN15
  7
_OPEN15
 40
1.0
 41
3.7200000000000002
 42
0.0
 43
7.0
 44
1.5
 45
0.0
 46
0.0
 47
0.0
 48
0.0
 71
               0
 72
               0
 73
               0
 74
               0
 75
               0
 76
               0
 77
               1
 78
               8
140
3.5
141
0.0
142
0.0
143
0.0393700787401575
144
1.0
145
0.0
146
0.6666666666666666
147
2.0
170
               0
171
               2
172
               0
173
               1
174
               0
175
               0
176
               1
177
               1
178
               5
270
               2
271
               2
272
               2
273
               2
274
               2
275
               0
280
               0
281
               1
282
               0
283
               1
284
               8
285
               0
286
               0
287
               0
288
               1
340
10
  0
ENDTAB
  0
TABLE
  2
BLOCK_RECORD
  5
1
100
AcDbSymbolTable
 70
              24
  0
BLOCK_RECORD
  5
1A
100
AcDbSymbolTableRecord
100
AcDbBlockTableRecord
  2
*MODEL_SPACE
  0
BLOCK_RECORD
  5
17
100
AcDbSymbolTableRecord
100
AcDbBlockTableRecord
  2
*PAPER_SPACE
  0
BLOCK_RECORD
  5
35
100
AcDbSymbolTableRecord
100
AcDbBlockTableRecord
  2
_OPEN15
  0
BLOCK_RECORD
  5
C3
100
AcDbSymbolTableRecord
100
AcDbBlockTableRecord
  2
*U1
  0
BLOCK_RECORD
  5
C19
100
AcDbSymbolTableRecord
100
AcDbBlockTableRecord
  2
*D2
  0
BLOCK_RECORD
  5
C27
100
AcDbSymbolTableRecord
100
AcDbBlockTableRecord
  2
*D3
  0
BLOCK_RECORD
  5
C42
100
AcDbSymbolTableRecord
100
AcDbBlockTableRecord
  2
*D4
  0
BLOCK_RECORD
  5
C50
100
AcDbSymbolTableRecord
100
AcDbBlockTableRecord
  2
*D5
  0
BLOCK_RECORD
  5
2CB2
100
AcDbSymbolTableRecord
100
AcDbBlockTableRecord
  2
*X6
  0
BLOCK_RECORD
  5
2EBB
100
AcDbSymbolTableRecord
100
AcDbBlockTableRecord
  2
_NONE
  0
BLOCK_RECORD
  5
2EBF
100
AcDbSymbolTableRecord
100
AcDbBlockTableRecord
  2
_ORIGIN
  0
BLOCK_RECORD
  5
3FD7
100
AcDbSymbolTableRecord
100
AcDbBlockTableRecord
  2
*D9
  0
BLOCK_RECORD
  5
47EB
100
AcDbSymbolTableRecord
100
AcDbBlockTableRecord
  2
*D10
  0
BLOCK_RECORD
  5
560C
100
AcDbSymbolTableRecord
100
AcDbBlockTableRecord
  2
*X11
  0
BLOCK_RECORD
  5
5625
100
AcDbSymbolTableRecord
100
AcDbBlockTableRecord
  2
*X12
  0
BLOCK_RECORD
  5
563B
100
AcDbSymbolTableRecord
100
AcDbBlockTableRecord
  2
*X13
  0
BLOCK_RECORD
  5
5650
100
AcDbSymbolTableRecord
100
AcDbBlockTableRecord
  2
*X14
  0
BLOCK_RECORD
  5
565F
100
AcDbSymbolTableRecord
100
AcDbBlockTableRecord
  2
*X15
  0
BLOCK_RECORD
  5
5674
100
AcDbSymbolTableRecord
100
AcDbBlockTableRecord
  2
*X16
  0
BLOCK_RECORD
  5
5694
100
AcDbSymbolTableRecord
100
AcDbBlockTableRecord
  2
*X17
  0
BLOCK_RECORD
  5
5770
100
AcDbSymbolTableRecord
100
AcDbBlockTableRecord
  2
*U18
  0
BLOCK_RECORD
  5
5776
100
AcDbSymbolTableRecord
100
AcDbBlockTableRecord
  2
*U19
  0
BLOCK_RECORD
  5
577C
100
AcDbSymbolTableRecord
100
AcDbBlockTableRecord
  2
*U20
  0
BLOCK_RECORD
  5
5782
100
AcDbSymbolTableRecord
100
AcDbBlockTableRecord
  2
*U21
  0
BLOCK_RECORD
  5
5789
100
AcDbSymbolTableRecord
100
AcDbBlockTableRecord
  2
*U22
  0
BLOCK_RECORD
  5
578F
100
AcDbSymbolTableRecord
100
AcDbBlockTableRecord
  2
*U23
  0
ENDTAB
  0
ENDSEC
  0
SECTION
  2
BLOCKS
  0
BLOCK
  5
1B
100
AcDbEntity
  8
0
100
AcDbBlockBegin
  2
*MODEL_SPACE
 70
              64
 10
0.0
 20
0.0
 30
0.0
  3
*MODEL_SPACE
  1

  0
ENDBLK
  5
1C
100
AcDbEntity
  8
0
100
AcDbBlockEnd
  0
BLOCK
  5
18
100
AcDbEntity
 67
               1
  8
0
100
AcDbBlockBegin
  2
*PAPER_SPACE
 70
              64
 10
0.0
 20
0.0
 30
0.0
  3
*PAPER_SPACE
  1

  0
ENDBLK
  5
19
100
AcDbEntity
 67
               1
  8
0
100
AcDbBlockEnd
  0
BLOCK
  5
39
100
AcDbEntity
  8
0
 62
               7
100
AcDbBlockBegin
  2
_OPEN15
 70
              64
 10
1.0
 20
0.0
 30
0.0
  3
_OPEN15
  1

  0
LINE
  5
36
100
AcDbEntity
  8
0
  6
BYBLOCK
 62
               0
100
AcDbLine
 10
0.0
 20
0.0
 30
0.0
 11
1.0
 21
0.0
 31
0.0
  0
LINE
  5
37
100
AcDbEntity
  8
0
  6
BYBLOCK
 62
               0
100
AcDbLine
 10
1.0
 20
0.0
 30
0.0
 11
0.0
 21
0.1316524975873958
 31
0.0
  0
LINE
  5
38
100
AcDbEntity
  8
0
  6
BYBLOCK
 62
               0
100
AcDbLine
 10
1.0
 20
0.0
 30
0.0
 11
0.0
 21
-0.1316524975873958
 31
0.0
  0
ENDBLK
  5
3A
100
AcDbEntity
  8
0
 62
               7
100
AcDbBlockEnd
  0
BLOCK
  5
C4
100
AcDbEntity
  8
0
 62
               7
100
AcDbBlockBegin
  2
*U1
 70
              65
 10
0.0
 20
0.0
 30
0.0
  3
*U1
  1

  0
ENDBLK
  5
C5
100
AcDbEntity
  8
0
 62
               7
100
AcDbBlockEnd
  0
BLOCK
  5
5303
100
AcDbEntity
  8
0
100
AcDbBlockBegin
  2
*D2
 70
              65
 10
0.0
 20
0.0
 30
0.0
  3
*D2
  1

  0
LINE
  5
5739
100
AcDbEntity
  8
0
  6
CONTINUOUS
 62
               1
100
AcDbLine
 10
120.94228983066891
 20
219.65001199999995
 30
0.0
 11
120.94228983066891
 21
270.59996317999992
 31
0.0
  0
LINE
  5
573A
100
AcDbEntity
  8
0
  6
CONTINUOUS
 62
               1
100
AcDbLine
 10
124.64228983066896
 20
219.65001199999995
 30
0.0
 11
124.64228983066896
 21
270.59996317999992
 31
0.0
  0
LINE
  5
573B
100
AcDbEntity
  8
0
  6
CONTINUOUS
 62
               1
100
AcDbLine
 10
117.22228983066891
 20
269.09996317999992
 30
0.0
 11
113.50228983066891
 21
269.09996317999992
 31
0.0
  0
LINE
  5
573C
100
AcDbEntity
  8
0
  6
CONTINUOUS
 62
               1
100
AcDbLine
 10
128.36228983066897
 20
269.09996317999992
 30
0.0
 11
151.32539236759078
 21
269.09996317999992
 31
0.0
  0
LINE
  5
573D
100
AcDbEntity
  8
0
  6
CONTINUOUS
 62
               1
100
AcDbLine
 10
120.94228983066891
 20
269.09996317999992
 30
0.0
 11
124.64228983066896
 21
269.09996317999992
 31
0.0
  0
INSERT
  5
573E
100
AcDbEntity
  8
0
  6
CONTINUOUS
 62
               1
100
AcDbBlockReference
  2
_OPEN15
 10
120.94228983066891
 20
269.09996317999992
 30
0.0
 41
3.7200000000000002
 42
3.7200000000000002
 43
3.7200000000000002
  0
INSERT
  5
573F
100
AcDbEntity
  8
0
  6
CONTINUOUS
 62
               1
100
AcDbBlockReference
  2
_OPEN15
 10
124.64228983066896
 20
269.09996317999992
 30
0.0
 41
3.7200000000000002
 42
3.7200000000000002
 43
3.7200000000000002
 50
180.0
  0
INSERT
  5
5774
100
AcDbEntity
  8
0
  6
CONTINUOUS
100
AcDbBlockReference
  2
*U18
 10
144.28789236759076
 20
271.84996317999992
 30
0.0
  0
POINT
  5
5741
100
AcDbEntity
  8
DEFPOINTS
  6
CONTINUOUS
 62
               0
100
AcDbPoint
 10
120.94228983066891
 20
219.65001199999995
 30
0.0
  0
POINT
  5
5742
100
AcDbEntity
  8
DEFPOINTS
  6
CONTINUOUS
 62
               0
100
AcDbPoint
 10
124.64228983066896
 20
219.65001199999995
 30
0.0
  0
POINT
  5
5743
100
AcDbEntity
  8
DEFPOINTS
  6
CONTINUOUS
 62
               0
100
AcDbPoint
 10
124.64228983066896
 20
269.09996317999992
 30
0.0
  0
ENDBLK
  5
5775
100
AcDbEntity
  8
0
100
AcDbBlockEnd
  0
BLOCK
  5
518E
100
AcDbEntity
  8
0
100
AcDbBlockBegin
  2
*D3
 70
              65
 10
0.0
 20
0.0
 30
0.0
  3
*D3
  1

  0
LINE
  5
5744
100
AcDbEntity
  8
0
  6
CONTINUOUS
 62
               1
100
AcDbLine
 10
113.092289830669
 20
219.65001199999995
 30
0.0
 11
113.092289830669
 21
277.59996317999992
 31
0.0
  0
LINE
  5
5745
100
AcDbEntity
  8
0
  6
CONTINUOUS
 62
               1
100
AcDbLine
 10
132.49228983066899
 20
219.65001199999995
 30
0.0
 11
132.49228983066899
 21
277.59996317999992
 31
0.0
  0
LINE
  5
5746
100
AcDbEntity
  8
0
  6
CONTINUOUS
 62
               1
100
AcDbLine
 10
109.372289830669
 20
276.09996317999992
 30
0.0
 11
105.65228983066901
 21
276.09996317999992
 31
0.0
  0
LINE
  5
5747
100
AcDbEntity
  8
0
  6
CONTINUOUS
 62
               1
100
AcDbLine
 10
136.21228983066899
 20
276.09996317999992
 30
0.0
 11
157.17563506576394
 21
276.09996317999992
 31
0.0
  0
LINE
  5
5748
100
AcDbEntity
  8
0
  6
CONTINUOUS
 62
               1
100
AcDbLine
 10
113.092289830669
 20
276.09996317999992
 30
0.0
 11
132.49228983066899
 21
276.09996317999992
 31
0.0
  0
INSERT
  5
5749
100
AcDbEntity
  8
0
  6
CONTINUOUS
 62
               1
100
AcDbBlockReference
  2
_OPEN15
 10
113.092289830669
 20
276.09996317999992
 30
0.0
 41
3.7200000000000002
 42
3.7200000000000002
 43
3.7200000000000002
  0
INSERT
  5
574A
100
AcDbEntity
  8
0
  6
CONTINUOUS
 62
               1
100
AcDbBlockReference
  2
_OPEN15
 10
132.49228983066899
 20
276.09996317999992
 30
0.0
 41
3.7200000000000002
 42
3.7200000000000002
 43
3.7200000000000002
 50
180.0
  0
INSERT
  5
577A
100
AcDbEntity
  8
0
  6
CONTINUOUS
100
AcDbBlockReference
  2
*U19
 10
148.55396244821645
 20
278.84996317999992
 30
0.0
  0
POINT
  5
574C
100
AcDbEntity
  8
DEFPOINTS
  6
CONTINUOUS
 62
               0
100
AcDbPoint
 10
113.092289830669
 20
219.65001199999995
 30
0.0
  0
POINT
  5
574D
100
AcDbEntity
  8
DEFPOINTS
  6
CONTINUOUS
 62
               0
100
AcDbPoint
 10
132.49228983066899
 20
219.65001199999995
 30
0.0
  0
POINT
  5
574E
100
AcDbEntity
  8
DEFPOINTS
  6
CONTINUOUS
 62
               0
100
AcDbPoint
 10
132.49228983066899
 20
276.09996317999992
 30
0.0
  0
ENDBLK
  5
577B
100
AcDbEntity
  8
0
100
AcDbBlockEnd
  0
BLOCK
  5
55D7
100
AcDbEntity
  8
0
100
AcDbBlockBegin
  2
*D4
 70
              65
 10
0.0
 20
0.0
 30
0.0
  3
*D4
  1

  0
LINE
  5
574F
100
AcDbEntity
  8
0
  6
CONTINUOUS
 62
               1
100
AcDbLine
 10
127.15122560817842
 20
212.79107622249023
 30
0.0
 11
127.15122560817842
 21
169.79059537995545
 31
0.0
  0
LINE
  5
5750
100
AcDbEntity
  8
0
  6
CONTINUOUS
 62
               1
100
AcDbLine
 10
132.15122560817844
 20
212.79107622249023
 30
0.0
 11
132.15122560817844
 21
169.79059537995545
 31
0.0
  0
LINE
  5
5751
100
AcDbEntity
  8
0
  6
CONTINUOUS
 62
               1
100
AcDbLine
 10
123.43122560817842
 20
171.29059537995545
 30
0.0
 11
119.71122560817842
 21
171.29059537995545
 31
0.0
  0
LINE
  5
5752
100
AcDbEntity
  8
0
  6
CONTINUOUS
 62
               1
100
AcDbLine
 10
135.87122560817843
 20
171.29059537995545
 30
0.0
 11
149.75563405321208
 21
171.29059537995545
 31
0.0
  0
LINE
  5
5753
100
AcDbEntity
  8
0
  6
CONTINUOUS
 62
               1
100
AcDbLine
 10
127.15122560817842
 20
171.29059537995545
 30
0.0
 11
132.15122560817844
 21
171.29059537995545
 31
0.0
  0
INSERT
  5
5754
100
AcDbEntity
  8
0
  6
CONTINUOUS
 62
               1
100
AcDbBlockReference
  2
_OPEN15
 10
127.15122560817842
 20
171.29059537995545
 30
0.0
 41
3.7200000000000002
 42
3.7200000000000002
 43
3.7200000000000002
  0
INSERT
  5
5755
100
AcDbEntity
  8
0
  6
CONTINUOUS
 62
               1
100
AcDbBlockReference
  2
_OPEN15
 10
132.15122560817844
 20
171.29059537995545
 30
0.0
 41
3.7200000000000002
 42
3.7200000000000002
 43
3.7200000000000002
 50
180.0
  0
INSERT
  5
5780
100
AcDbEntity
  8
0
  6
CONTINUOUS
100
AcDbBlockReference
  2
*U20
 10
145.23440299308913
 20
174.04059537995545
 30
0.0
  0
POINT
  5
5757
100
AcDbEntity
  8
DEFPOINTS
  6
CONTINUOUS
 62
               0
100
AcDbPoint
 10
127.15122560817842
 20
212.79107622249023
 30
0.0
  0
POINT
  5
5758
100
AcDbEntity
  8
DEFPOINTS
  6
CONTINUOUS
 62
               0
100
AcDbPoint
 10
132.15122560817844
 20
212.79107622249023
 30
0.0
  0
POINT
  5
5759
100
AcDbEntity
  8
DEFPOINTS
  6
CONTINUOUS
 62
               0
100
AcDbPoint
 10
132.15122560817844
 20
171.29059537995545
 30
0.0
  0
ENDBLK
  5
5781
100
AcDbEntity
  8
0
100
AcDbBlockEnd
  0
BLOCK
  5
54CA
100
AcDbEntity
  8
0
100
AcDbBlockBegin
  2
*D5
 70
              65
 10
0.0
 20
0.0
 30
0.0
  3
*D5
  1

  0
LINE
  5
575A
100
AcDbEntity
  8
0
  6
CONTINUOUS
 62
               1
100
AcDbLine
 10
115.93335405315945
 20
212.79107622249035
 30
0.0
 11
115.93335405315945
 21
163.16964278014211
 31
0.0
  0
LINE
  5
575B
100
AcDbEntity
  8
0
  6
CONTINUOUS
 62
               1
100
AcDbLine
 10
129.65122560817849
 20
212.79107622249029
 30
0.0
 11
129.65122560817849
 21
163.16964278014211
 31
0.0
  0
LINE
  5
575C
100
AcDbEntity
  8
0
  6
CONTINUOUS
 62
               1
100
AcDbLine
 10
112.21335405315945
 20
164.66964278014211
 30
0.0
 11
108.49335405315945
 21
164.66964278014211
 31
0.0
  0
LINE
  5
575D
100
AcDbEntity
  8
0
  6
CONTINUOUS
 62
               1
100
AcDbLine
 10
133.37122560817849
 20
164.66964278014211
 30
0.0
 11
161.13709174991078
 21
164.66964278014211
 31
0.0
  0
LINE
  5
575E
100
AcDbEntity
  8
0
  6
CONTINUOUS
 62
               1
100
AcDbLine
 10
115.93335405315945
 20
164.66964278014211
 30
0.0
 11
129.65122560817849
 21
164.66964278014211
 31
0.0
  0
INSERT
  5
575F
100
AcDbEntity
  8
0
  6
CONTINUOUS
 62
               1
100
AcDbBlockReference
  2
_OPEN15
 10
115.93335405315945
 20
164.66964278014211
 30
0.0
 41
3.7200000000000002
 42
3.7200000000000002
 43
3.7200000000000002
  0
INSERT
  5
5760
100
AcDbEntity
  8
0
  6
CONTINUOUS
 62
               1
100
AcDbBlockReference
  2
_OPEN15
 10
129.65122560817849
 20
164.66964278014211
 30
0.0
 41
3.7200000000000002
 42
3.7200000000000002
 43
3.7200000000000002
 50
180.0
  0
INSERT
  5
5787
100
AcDbEntity
  8
0
  6
CONTINUOUS
100
AcDbBlockReference
  2
*U21
 10
149.11415867904464
 20
167.59464278014212
 30
0.0
  0
POINT
  5
5762
100
AcDbEntity
  8
DEFPOINTS
  6
CONTINUOUS
 62
               0
100
AcDbPoint
 10
115.93335405315945
 20
212.79107622249035
 30
0.0
  0
POINT
  5
5763
100
AcDbEntity
  8
DEFPOINTS
  6
CONTINUOUS
 62
               0
100
AcDbPoint
 10
129.65122560817849
 20
212.79107622249029
 30
0.0
  0
POINT
  5
5764
100
AcDbEntity
  8
DEFPOINTS
  6
CONTINUOUS
 62
               0
100
AcDbPoint
 10
129.65122560817849
 20
164.66964278014211
 30
0.0
  0
ENDBLK
  5
5788
100
AcDbEntity
  8
0
100
AcDbBlockEnd
  0
BLOCK
  5
2CB3
100
AcDbEntity
  8
0
100
AcDbBlockBegin
  2
*X6
 70
              65
 10
0.0
 20
0.0
 30
0.0
  3
*X6
  1

  0
LINE
  5
2CB5
100
AcDbEntity
  8
0
  6
CONTINUOUS
 62
               0
100
AcDbLine
 10
116.27062357847716
 20
99.300060830000007
 30
0.0
 11
118.43335405315945
 21
101.4627913046823
 31
0.0
  0
LINE
  5
2CB6
100
AcDbEntity
  8
0
  6
CONTINUOUS
 62
               0
100
AcDbLine
 10
118.43335405315945
 20
101.4627913046823
 30
0.0
 11
119.17062357847715
 21
102.20006083000001
 31
0.0
  0
LINE
  5
2CB7
100
AcDbEntity
  8
0
  6
CONTINUOUS
 62
               0
100
AcDbLine
 10
114.1493032349175
 20
99.300060830000007
 30
0.0
 11
117.0493032349175
 21
102.20006083
 31
0.0
  0
LINE
  5
2CB8
100
AcDbEntity
  8
0
  6
CONTINUOUS
 62
               0
100
AcDbLine
 10
112.02798289135787
 20
99.300060830000007
 30
0.0
 11
113.43335405315945
 21
100.70543199180159
 31
0.0
  0
LINE
  5
2CB9
100
AcDbEntity
  8
0
  6
CONTINUOUS
 62
               0
100
AcDbLine
 10
113.43335405315945
 20
100.70543199180159
 30
0.0
 11
114.92798289135787
 21
102.20006083000001
 31
0.0
  0
LINE
  5
2CBA
100
AcDbEntity
  8
0
  6
CONTINUOUS
 62
               0
100
AcDbLine
 10
109.90666254779822
 20
99.300060830000007
 30
0.0
 11
112.80666254779824
 21
102.20006083000003
 31
0.0
  0
LINE
  5
2CBB
100
AcDbEntity
  8
0
  6
CONTINUOUS
 62
               0
100
AcDbLine
 10
107.78534220423857
 20
99.300060830000007
 30
0.0
 11
110.68534220423859
 21
102.20006083000001
 31
0.0
  0
LINE
  5
2CBC
100
AcDbEntity
  8
0
  6
CONTINUOUS
 62
               0
100
AcDbLine
 10
106.74636169888414
 20
100.38240066820521
 30
0.0
 11
108.56402186067895
 21
102.20006083000001
 31
0.0
  0
LINE
  5
2CBD
100
AcDbEntity
  8
0
  6
CONTINUOUS
 62
               0
100
AcDbLine
 10
118.3919439220368
 20
99.300060830000007
 30
0.0
 11
118.43335405315945
 21
99.341470961122667
 31
0.0
  0
LINE
  5
2CBE
100
AcDbEntity
  8
0
  6
CONTINUOUS
 62
               0
100
AcDbLine
 10
118.43335405315945
 20
99.341470961122667
 30
0.0
 11
120.94228983066888
 21
101.85040673863212
 31
0.0
  0
LINE
  5
2CBF
100
AcDbEntity
  8
0
  6
CONTINUOUS
 62
               0
100
AcDbLine
 10
120.51326426559643
 20
99.300060830000007
 30
0.0
 11
120.94228983066888
 21
99.729086395072457
 31
0.0
  0
LINE
  5
2CC0
100
AcDbEntity
  8
0
  6
CONTINUOUS
 62
               0
100
AcDbLine
 10
124.64228983066896
 20
101.30776605151289
 30
0.0
 11
125.53458460915611
 21
102.20006083000004
 31
0.0
  0
LINE
  5
2CC1
100
AcDbEntity
  8
0
  6
CONTINUOUS
 62
               0
100
AcDbLine
 10
124.75590495271572
 20
99.300060830000007
 30
0.0
 11
127.15122560817842
 21
101.6953814854627
 31
0.0
  0
LINE
  5
2CC2
100
AcDbEntity
  8
0
  6
CONTINUOUS
 62
               0
100
AcDbLine
 10
127.15122560817844
 20
101.69538148546273
 30
0.0
 11
127.6559049527157
 21
102.20006082999998
 31
0.0
  0
LINE
  5
2CC3
100
AcDbEntity
  8
0
  6
CONTINUOUS
 62
               0
100
AcDbLine
 10
126.87722529627536
 20
99.300060830000007
 30
0.0
 11
127.15122560817842
 21
99.574061141903073
 31
0.0
  0
LINE
  5
2CC4
100
AcDbEntity
  8
0
  6
CONTINUOUS
 62
               0
100
AcDbLine
 10
127.15122560817844
 20
99.574061141903087
 30
0.0
 11
129.77722529627536
 21
102.20006083
 31
0.0
  0
LINE
  5
2CC5
100
AcDbEntity
  8
0
  6
CONTINUOUS
 62
               0
100
AcDbLine
 10
128.99854563983499
 20
99.300060829999993
 30
0.0
 11
131.89854563983499
 21
102.20006083
 31
0.0
  0
LINE
  5
2CC6
100
AcDbEntity
  8
0
  6
CONTINUOUS
 62
               0
100
AcDbLine
 10
131.11986598339462
 20
99.300060829999993
 30
0.0
 11
132.15122560817844
 21
100.33142045478381
 31
0.0
  0
LINE
  5
2CC7
100
AcDbEntity
  8
0
  6
CONTINUOUS
 62
               0
100
AcDbLine
 10
132.15122560817844
 20
100.33142045478381
 30
0.0
 11
134.01986598339462
 21
102.20006082999998
 31
0.0
  0
LINE
  5
2CC8
100
AcDbEntity
  8
0
  6
CONTINUOUS
 62
               0
100
AcDbLine
 10
133.24118632695431
 20
99.300060830000007
 30
0.0
 11
136.14118632695426
 21
102.20006082999998
 31
0.0
  0
LINE
  5
2CC9
100
AcDbEntity
  8
0
  6
CONTINUOUS
 62
               0
100
AcDbLine
 10
135.36250667051394
 20
99.300060830000007
 30
0.0
 11
137.47711920433306
 21
101.41467336381916
 31
0.0
  0
ENDBLK
  5
2CCA
100
AcDbEntity
  8
0
100
AcDbBlockEnd
  0
BLOCK
  5
2EBD
100
AcDbEntity
  8
0
100
AcDbBlockBegin
  2
_NONE
 70
              64
 10
0.0
 20
0.0
 30
0.0
  3
_NONE
  1

  0
CIRCLE
  5
2EBC
100
AcDbEntity
  8
0
  6
BYBLOCK
 62
               0
100
AcDbCircle
 10
0.0
 20
0.0
 30
0.0
 40
0.25
  0
ENDBLK
  5
2EBE
100
AcDbEntity
  8
0
100
AcDbBlockEnd
  0
BLOCK
  5
2EC2
100
AcDbEntity
  8
0
100
AcDbBlockBegin
  2
_ORIGIN
 70
              64
 10
0.0
 20
0.0
 30
0.0
  3
_ORIGIN
  1

  0
CIRCLE
  5
2EC0
100
AcDbEntity
  8
0
  6
BYBLOCK
 62
               0
100
AcDbCircle
 10
0.0
 20
0.0
 30
0.0
 40
0.5
  0
LINE
  5
2EC1
100
AcDbEntity
  8
0
  6
BYBLOCK
 62
               0
100
AcDbLine
 10
-0.5
 20
0.0
 30
0.0
 11
-1.0
 21
0.0
 31
0.0
  0
ENDBLK
  5
2EC3
100
AcDbEntity
  8
0
100
AcDbBlockEnd
  0
BLOCK
  5
462C
100
AcDbEntity
  8
0
100
AcDbBlockBegin
  2
*D9
 70
              65
 10
0.0
 20
0.0
 30
0.0
  3
*D9
  1

  0
LINE
  5
5725
100
AcDbEntity
  8
2
  6
CONTINUOUS
 62
               1
100
AcDbLine
 10
132.83320612351795
 20
209.6090957071508
 30
0.0
 11
141.70867224916972
 21
200.73362958149897
 31
0.0
  0
LINE
  5
5726
100
AcDbEntity
  8
2
  6
CONTINUOUS
 62
               1
100
AcDbLine
 10
132.83320612351798
 20
229.69092829284887
 30
0.0
 11
141.70867224916975
 21
238.56639441850066
 31
0.0
  0
ARC
  5
5727
100
AcDbEntity
  8
2
  6
CONTINUOUS
 62
               1
100
AcDbCircle
 10
122.79228983066895
 20
219.6500119999998
 30
0.0
 40
25.251804567279812
100
AcDbArc
 50
323.44824788595986
 51
396.55175211404008
  0
INSERT
  5
5728
100
AcDbEntity
  8
2
  6
CONTINUOUS
 62
               1
100
AcDbBlockReference
  2
_OPEN15
 10
140.64801207738989
 20
201.7942897532788
 30
0.0
 41
3.7200000000000002
 42
3.7200000000000002
 43
3.7200000000000002
 50
229.22412394297984
  0
INSERT
  5
5729
100
AcDbEntity
  8
2
  6
CONTINUOUS
 62
               1
100
AcDbBlockReference
  2
_OPEN15
 10
140.64801207738992
 20
237.50573424672086
 30
0.0
 41
3.7200000000000002
 42
3.7200000000000002
 43
3.7200000000000002
 50
130.77587605702004
  0
INSERT
  5
578D
100
AcDbEntity
  8
2
  6
CONTINUOUS
100
AcDbBlockReference
  2
*U22
 10
144.4772565967574
 20
213.64223161638947
 30
0.0
  0
POINT
  5
572B
100
AcDbEntity
  8
DEFPOINTS
  6
CONTINUOUS
 62
               0
100
AcDbPoint
 10
147.18366002260879
 20
226.18565994521867
 30
0.0
  0
POINT
  5
572C
100
AcDbEntity
  8
DEFPOINTS
  6
CONTINUOUS
 62
               0
100
AcDbPoint
 10
126.46924509283899
 20
215.97305673782978
 30
0.0
  0
POINT
  5
572D
100
AcDbEntity
  8
DEFPOINTS
  6
CONTINUOUS
 62
               0
100
AcDbPoint
 10
126.46924509283897
 20
223.32696726216986
 30
0.0
  0
POINT
  5
572E
100
AcDbEntity
  8
DEFPOINTS
  6
CONTINUOUS
 62
               0
100
AcDbPoint
 10
132.83320612351798
 20
229.69092829284887
 30
0.0
  0
POINT
  5
572F
100
AcDbEntity
  8
DEFPOINTS
  6
CONTINUOUS
 62
               0
100
AcDbPoint
 10
132.83320612351795
 20
209.6090957071508
 30
0.0
  0
ENDBLK
  5
578E
100
AcDbEntity
  8
0
100
AcDbBlockEnd
  0
BLOCK
  5
53F3
100
AcDbEntity
  8
0
100
AcDbBlockBegin
  2
*D10
 70
              65
 10
0.0
 20
0.0
 30
0.0
  3
*D10
  1

  0
LINE
  5
5730
100
AcDbEntity
  8
2
  6
CONTINUOUS
 62
               1
100
AcDbLine
 10
122.79228983066895
 20
194.65001199999998
 30
0.0
 11
122.79228983066895
 21
156.7851531558299
 31
0.0
  0
LINE
  5
5731
100
AcDbEntity
  8
2
  6
CONTINUOUS
 62
               1
100
AcDbLine
 10
92.792289830668921
 20
162.77794165468728
 30
0.0
 11
92.792289830668921
 21
156.7851531558299
 31
0.0
  0
LINE
  5
5732
100
AcDbEntity
  8
2
  6
CONTINUOUS
 62
               1
100
AcDbLine
 10
119.07228983066895
 20
158.2851531558299
 30
0.0
 11
96.512289830668919
 21
158.2851531558299
 31
0.0
  0
INSERT
  5
5733
100
AcDbEntity
  8
2
  6
CONTINUOUS
 62
               1
100
AcDbBlockReference
  2
_OPEN15
 10
122.79228983066895
 20
158.2851531558299
 30
0.0
 41
3.7200000000000002
 42
3.7200000000000002
 43
3.7200000000000002
  0
INSERT
  5
5734
100
AcDbEntity
  8
2
  6
CONTINUOUS
 62
               1
100
AcDbBlockReference
  2
_OPEN15
 10
92.792289830668921
 20
158.2851531558299
 30
0.0
 41
3.7200000000000002
 42
3.7200000000000002
 43
3.7200000000000002
 50
180.0
  0
INSERT
  5
5793
100
AcDbEntity
  8
2
  6
CONTINUOUS
100
AcDbBlockReference
  2
*U23
 10
108.32038842919792
 20
161.0351531558299
 30
0.0
  0
POINT
  5
5736
100
AcDbEntity
  8
DEFPOINTS
  6
CONTINUOUS
 62
               0
100
AcDbPoint
 10
122.79228983066895
 20
194.65001199999998
 30
0.0
  0
POINT
  5
5737
100
AcDbEntity
  8
DEFPOINTS
  6
CONTINUOUS
 62
               0
100
AcDbPoint
 10
92.792289830668921
 20
162.77794165468728
 30
0.0
  0
POINT
  5
5738
100
AcDbEntity
  8
DEFPOINTS
  6
CONTINUOUS
 62
               0
100
AcDbPoint
 10
92.792289830668921
 20
158.2851531558299
 30
0.0
  0
ENDBLK
  5
5794
100
AcDbEntity
  8
0
100
AcDbBlockEnd
  0
BLOCK
  5
5623
100
AcDbEntity
  8
0
100
AcDbBlockBegin
  2
*X11
 70
              65
 10
0.0
 20
0.0
 30
0.0
  3
*X11
  1

  0
LINE
  5
560D
100
AcDbEntity
  8
0
  6
CONTINUOUS
 62
               0
100
AcDbLine
 10
282.49469323572339
 20
111.72840557917216
 30
0.0
 11
283.35278224316642
 21
112.58649458661523
 31
0.0
1001
PHOENIX7010
1002
{
1070
              62
1070
               0
1002
}
  0
LINE
  5
560E
100
AcDbEntity
  8
0
  6
CONTINUOUS
 62
               0
100
AcDbLine
 10
283.97486029471321
 20
113.20857263816201
 30
0.0
 11
284.35593435554188
 21
113.58964669899063
 31
0.0
1001
PHOENIX7010
1002
{
1070
              62
1070
               0
1002
}
  0
LINE
  5
560F
100
AcDbEntity
  8
0
  6
CONTINUOUS
 62
               0
100
AcDbLine
 10
282.49469323572339
 20
112.08195896976545
 30
0.0
 11
283.05469323572356
 21
112.6419589697656
 31
0.0
1001
PHOENIX7010
1002
{
1070
              62
1070
               0
1002
}
  0
LINE
  5
5610
100
AcDbEntity
  8
0
  6
CONTINUOUS
 62
               0
100
AcDbLine
 10
283.69922885257319
 20
113.28649458661528
 30
0.0
 11
284.10691303134797
 21
113.69417876539005
 31
0.0
1001
PHOENIX7010
1002
{
1070
              62
1070
               0
1002
}
  0
LINE
  5
5611
100
AcDbEntity
  8
0
  6
CONTINUOUS
 62
               0
100
AcDbLine
 10
282.49469323572339
 20
112.43551236035874
 30
0.0
 11
283.05469323572356
 21
112.99551236035887
 31
0.0
1001
PHOENIX7010
1002
{
1070
              62
1070
               0
1002
}
  0
LINE
  5
5612
100
AcDbEntity
  8
0
  6
CONTINUOUS
 62
               0
100
AcDbLine
 10
283.34567546197997
 20
113.28649458661528
 30
0.0
 11
283.76567546198004
 21
113.70649458661535
 31
0.0
1001
PHOENIX7010
1002
{
1070
              62
1070
               0
1002
}
  0
LINE
  5
5613
100
AcDbEntity
  8
0
  6
CONTINUOUS
 62
               0
100
AcDbLine
 10
282.49469323572339
 20
112.78906575095201
 30
0.0
 11
283.4121220713867
 21
113.70649458661535
 31
0.0
1001
PHOENIX7010
1002
{
1070
              62
1070
               0
1002
}
  0
LINE
  5
5614
100
AcDbEntity
  8
0
  6
CONTINUOUS
 62
               0
100
AcDbLine
 10
282.49469323572339
 20
113.14261914154528
 30
0.0
 11
283.05856868079348
 21
113.70649458661535
 31
0.0
1001
PHOENIX7010
1002
{
1070
              62
1070
               0
1002
}
  0
LINE
  5
5615
100
AcDbEntity
  8
0
  6
CONTINUOUS
 62
               0
100
AcDbLine
 10
282.49469323572339
 20
113.49617253213854
 30
0.0
 11
282.70501529020015
 21
113.70649458661535
 31
0.0
1001
PHOENIX7010
1002
{
1070
              62
1070
               0
1002
}
  0
LINE
  5
5616
100
AcDbEntity
  8
0
  6
CONTINUOUS
 62
               0
100
AcDbLine
 10
282.49469323572339
 20
111.3748521885789
 30
0.0
 11
283.05469323572362
 21
111.9348521885791
 31
0.0
1001
PHOENIX7010
1002
{
1070
              62
1070
               0
1002
}
  0
LINE
  5
5617
100
AcDbEntity
  8
0
  6
CONTINUOUS
 62
               0
100
AcDbLine
 10
284.10173616117771
 20
112.98189511403324
 30
0.0
 11
284.53544905669804
 21
113.41560800955351
 31
0.0
1001
PHOENIX7010
1002
{
1070
              62
1070
               0
1002
}
  0
LINE
  5
5618
100
AcDbEntity
  8
0
  6
CONTINUOUS
 62
               0
100
AcDbLine
 10
283.28633563375973
 20
112.16649458661527
 30
0.0
 11
283.70633563375969
 21
112.58649458661523
 31
0.0
1001
PHOENIX7010
1002
{
1070
              62
1070
               0
1002
}
  0
LINE
  5
5619
100
AcDbEntity
  8
0
  6
CONTINUOUS
 62
               0
100
AcDbLine
 10
282.49469323572339
 20
111.02129879798562
 30
0.0
 11
283.05469323572362
 21
111.58129879798582
 31
0.0
1001
PHOENIX7010
1002
{
1070
              62
1070
               0
1002
}
  0
LINE
  5
561A
100
AcDbEntity
  8
0
  6
CONTINUOUS
 62
               0
100
AcDbLine
 10
283.63988902435301
 20
112.16649458661527
 30
0.0
 11
284.64680417441599
 21
113.17340973667821
 31
0.0
1001
PHOENIX7010
1002
{
1070
              62
1070
               0
1002
}
  0
LINE
  5
561B
100
AcDbEntity
  8
0
  6
CONTINUOUS
 62
               0
100
AcDbLine
 10
282.7334424149463
 20
110.9064945866153
 30
0.0
 11
283.15344241494626
 21
111.32649458661524
 31
0.0
1001
PHOENIX7010
1002
{
1070
              62
1070
               0
1002
}
  0
LINE
  5
561C
100
AcDbEntity
  8
0
  6
CONTINUOUS
 62
               0
100
AcDbLine
 10
283.94688761777792
 20
112.11993978944689
 30
0.0
 11
284.63966440864846
 21
112.8127165803174
 31
0.0
1001
PHOENIX7010
1002
{
1070
              62
1070
               0
1002
}
  0
LINE
  5
561D
100
AcDbEntity
  8
0
  6
CONTINUOUS
 62
               0
100
AcDbLine
 10
283.08699580553957
 20
110.9064945866153
 30
0.0
 11
283.50699580553953
 21
111.32649458661524
 31
0.0
1001
PHOENIX7010
1002
{
1070
              62
1070
               0
1002
}
  0
LINE
  5
561E
100
AcDbEntity
  8
0
  6
CONTINUOUS
 62
               0
100
AcDbLine
 10
284.12505915099791
 20
111.94455793207361
 30
0.0
 11
284.43827210080048
 21
112.25777088187614
 31
0.0
1001
PHOENIX7010
1002
{
1070
              62
1070
               0
1002
}
  0
LINE
  5
561F
100
AcDbEntity
  8
0
  6
CONTINUOUS
 62
               0
100
AcDbLine
 10
283.44054919613285
 20
110.9064945866153
 30
0.0
 11
283.87953111044965
 21
111.34547650093207
 31
0.0
1001
PHOENIX7010
1002
{
1070
              62
1070
               0
1002
}
  0
LINE
  5
5620
100
AcDbEntity
  8
0
  6
CONTINUOUS
 62
               0
100
AcDbLine
 10
284.15571132140673
 20
111.62165671188917
 30
0.0
 11
284.61085041953743
 21
112.07679581001986
 31
0.0
1001
PHOENIX7010
1002
{
1070
              62
1070
               0
1002
}
  0
LINE
  5
5621
100
AcDbEntity
  8
0
  6
CONTINUOUS
 62
               0
100
AcDbLine
 10
283.79410258672613
 20
110.9064945866153
 30
0.0
 11
284.71921407924987
 21
111.83160607913904
 31
0.0
1001
PHOENIX7010
1002
{
1070
              62
1070
               0
1002
}
  0
LINE
  5
5622
100
AcDbEntity
  8
0
  6
CONTINUOUS
 62
               0
100
AcDbLine
 10
284.16288214544585
 20
110.92172075474171
 30
0.0
 11
284.71946706758638
 21
111.47830567688227
 31
0.0
1001
PHOENIX7010
1002
{
1070
              62
1070
               0
1002
}
  0
ENDBLK
  5
5624
100
AcDbEntity
  8
0
100
AcDbBlockEnd
  0
BLOCK
  5
5639
100
AcDbEntity
  8
0
100
AcDbBlockBegin
  2
*X12
 70
              65
 10
0.0
 20
0.0
 30
0.0
  3
*X12
  1

  0
LINE
  5
5626
100
AcDbEntity
  8
0
  6
CONTINUOUS
 62
               0
100
AcDbLine
 10
286.4180755690154
 20
111.4091472253449
 30
0.0
 11
286.82469689582541
 21
111.81576855215488
 31
0.0
1001
PHOENIX7010
1002
{
1070
              62
1070
               0
1002
}
  0
LINE
  5
5627
100
AcDbEntity
  8
0
  6
CONTINUOUS
 62
               0
100
AcDbLine
 10
288.02986411956778
 20
113.0209357758973
 30
0.0
 11
288.42649713531665
 21
113.41756879164616
 31
0.0
1001
PHOENIX7010
1002
{
1070
              62
1070
               0
1002
}
  0
LINE
  5
5628
100
AcDbEntity
  8
0
  6
CONTINUOUS
 62
               0
100
AcDbLine
 10
286.29037330338417
 20
111.63499835030692
 30
0.0
 11
286.74051377210765
 21
112.08513881903039
 31
0.0
1001
PHOENIX7010
1002
{
1070
              62
1070
               0
1002
}
  0
LINE
  5
5629
100
AcDbEntity
  8
0
  6
CONTINUOUS
 62
               0
100
AcDbLine
 10
287.80981476703562
 20
113.15443981395842
 30
0.0
 11
288.22519449965068
 21
113.56981954657347
 31
0.0
1001
PHOENIX7010
1002
{
1070
              62
1070
               0
1002
}
  0
LINE
  5
562A
100
AcDbEntity
  8
0
  6
CONTINUOUS
 62
               0
100
AcDbLine
 10
286.20385631728942
 20
111.90203475480547
 30
0.0
 11
286.73471938502769
 21
112.43289782254372
 31
0.0
1001
PHOENIX7010
1002
{
1070
              62
1070
               0
1002
}
  0
LINE
  5
562B
100
AcDbEntity
  8
0
  6
CONTINUOUS
 62
               0
100
AcDbLine
 10
287.51228999979503
 20
113.21046843731109
 30
0.0
 11
287.98779284761883
 21
113.68597128513487
 31
0.0
1001
PHOENIX7010
1002
{
1070
              62
1070
               0
1002
}
  0
LINE
  5
562C
100
AcDbEntity
  8
0
  6
CONTINUOUS
 62
               0
100
AcDbLine
 10
286.17469323572345
 20
112.22642506383281
 30
0.0
 11
287.70569029250248
 21
113.75742212061184
 31
0.0
1001
PHOENIX7010
1002
{
1070
              62
1070
               0
1002
}
  0
LINE
  5
562D
100
AcDbEntity
  8
0
  6
CONTINUOUS
 62
               0
100
AcDbLine
 10
286.18467058591443
 20
112.58995580461706
 30
0.0
 11
287.35523201772168
 21
113.76051723642431
 31
0.0
1001
PHOENIX7010
1002
{
1070
              62
1070
               0
1002
}
  0
LINE
  5
562E
100
AcDbEntity
  8
0
  6
CONTINUOUS
 62
               0
100
AcDbLine
 10
286.37734303562172
 20
113.13618164491763
 30
0.0
 11
286.80900617742111
 21
113.56784478671702
 31
0.0
1001
PHOENIX7010
1002
{
1070
              62
1070
               0
1002
}
  0
LINE
  5
562F
100
AcDbEntity
  8
0
  6
CONTINUOUS
 62
               0
100
AcDbLine
 10
286.58056082677564
 20
111.21807909251183
 30
0.0
 11
286.97659603647026
 21
111.61411430220647
 31
0.0
1001
PHOENIX7010
1002
{
1070
              62
1070
               0
1002
}
  0
LINE
  5
5630
100
AcDbEntity
  8
0
  6
CONTINUOUS
 62
               0
100
AcDbLine
 10
288.19148221247377
 20
112.82900047821002
 30
0.0
 11
288.59452854540444
 21
113.23204681114069
 31
0.0
1001
PHOENIX7010
1002
{
1070
              62
1070
               0
1002
}
  0
LINE
  5
5631
100
AcDbEntity
  8
0
  6
CONTINUOUS
 62
               0
100
AcDbLine
 10
286.77622653738581
 20
111.06019141252878
 30
0.0
 11
287.1864225448964
 21
111.47038742003936
 31
0.0
1001
PHOENIX7010
1002
{
1070
              62
1070
               0
1002
}
  0
LINE
  5
5632
100
AcDbEntity
  8
0
  6
CONTINUOUS
 62
               0
100
AcDbLine
 10
288.28890724368961
 20
112.57287211883254
 30
0.0
 11
288.72831688902016
 21
113.01228176416309
 31
0.0
1001
PHOENIX7010
1002
{
1070
              62
1070
               0
1002
}
  0
LINE
  5
5633
100
AcDbEntity
  8
0
  6
CONTINUOUS
 62
               0
100
AcDbLine
 10
287.00721360482112
 20
110.93762508937081
 30
0.0
 11
287.4677405769711
 21
111.39815206152078
 31
0.0
1001
PHOENIX7010
1002
{
1070
              62
1070
               0
1002
}
  0
LINE
  5
5634
100
AcDbEntity
  8
0
  6
CONTINUOUS
 62
               0
100
AcDbLine
 10
288.30269323572327
 20
112.23310472027298
 30
0.0
 11
288.82246194610127
 21
112.75287343065096
 31
0.0
1001
PHOENIX7010
1002
{
1070
              62
1070
               0
1002
}
  0
LINE
  5
5635
100
AcDbEntity
  8
0
  6
CONTINUOUS
 62
               0
100
AcDbLine
 10
287.28084920222358
 20
110.85770729617997
 30
0.0
 11
287.94691718452015
 21
111.52377527847655
 31
0.0
1001
PHOENIX7010
1002
{
1070
              62
1070
               0
1002
}
  0
LINE
  5
5636
100
AcDbEntity
  8
0
  6
CONTINUOUS
 62
               0
100
AcDbLine
 10
288.17541254386225
 20
111.75227063781864
 30
0.0
 11
288.86263042094532
 21
112.43948851490171
 31
0.0
1001
PHOENIX7010
1002
{
1070
              62
1070
               0
1002
}
  0
LINE
  5
5637
100
AcDbEntity
  8
0
  6
CONTINUOUS
 62
               0
100
AcDbLine
 10
287.61677342704172
 20
110.84007813040485
 30
0.0
 11
288.85910969193395
 21
112.08241439529706
 31
0.0
1001
PHOENIX7010
1002
{
1070
              62
1070
               0
1002
}
  0
LINE
  5
5638
100
AcDbEntity
  8
0
  6
CONTINUOUS
 62
               0
100
AcDbLine
 10
288.09800519029045
 20
110.96775650306033
 30
0.0
 11
288.73143131927844
 21
111.60118263204832
 31
0.0
1001
PHOENIX7010
1002
{
1070
              62
1070
               0
1002
}
  0
ENDBLK
  5
563A
100
AcDbEntity
  8
0
100
AcDbBlockEnd
  0
BLOCK
  5
564E
100
AcDbEntity
  8
0
100
AcDbBlockBegin
  2
*X13
 70
              65
 10
0.0
 20
0.0
 30
0.0
  3
*X13
  1

  0
LINE
  5
563C
100
AcDbEntity
  8
0
  6
CONTINUOUS
 62
               0
100
AcDbLine
 10
290.37469323572338
 20
111.83023098612014
 30
0.0
 11
290.93469323572344
 21
112.39023098612019
 31
0.0
1001
PHOENIX7010
1002
{
1070
              62
1070
               0
1002
}
  0
LINE
  5
563D
100
AcDbEntity
  8
0
  6
CONTINUOUS
 62
               0
100
AcDbLine
 10
291.72676842354298
 20
113.18230617393971
 30
0.0
 11
292.0864933292313
 21
113.54203107962809
 31
0.0
1001
PHOENIX7010
1002
{
1070
              62
1070
               0
1002
}
  0
LINE
  5
563E
100
AcDbEntity
  8
0
  6
CONTINUOUS
 62
               0
100
AcDbLine
 10
290.37469323572338
 20
112.18378437671342
 30
0.0
 11
290.93469323572344
 21
112.74378437671346
 31
0.0
1001
PHOENIX7010
1002
{
1070
              62
1070
               0
1002
}
  0
LINE
  5
563F
100
AcDbEntity
  8
0
  6
CONTINUOUS
 62
               0
100
AcDbLine
 10
291.47483154304007
 20
113.28392268403007
 30
0.0
 11
291.85114322376882
 21
113.66023436475886
 31
0.0
1001
PHOENIX7010
1002
{
1070
              62
1070
               0
1002
}
  0
LINE
  5
5640
100
AcDbEntity
  8
0
  6
CONTINUOUS
 62
               0
100
AcDbLine
 10
290.37469323572338
 20
112.53733776730668
 30
0.0
 11
290.93469323572344
 21
113.09733776730674
 31
0.0
1001
PHOENIX7010
1002
{
1070
              62
1070
               0
1002
}
  0
LINE
  5
5641
100
AcDbEntity
  8
0
  6
CONTINUOUS
 62
               0
100
AcDbLine
 10
291.12385005503199
 20
113.28649458661528
 30
0.0
 11
291.54385005503201
 21
113.70649458661535
 31
0.0
1001
PHOENIX7010
1002
{
1070
              62
1070
               0
1002
}
  0
LINE
  5
5642
100
AcDbEntity
  8
0
  6
CONTINUOUS
 62
               0
100
AcDbLine
 10
290.37469323572338
 20
112.89089115789997
 30
0.0
 11
291.19029666443879
 21
113.70649458661535
 31
0.0
1001
PHOENIX7010
1002
{
1070
              62
1070
               0
1002
}
  0
LINE
  5
5643
100
AcDbEntity
  8
0
  6
CONTINUOUS
 62
               0
100
AcDbLine
 10
290.37469323572338
 20
113.24444454849326
 30
0.0
 11
290.83674327384546
 21
113.70649458661535
 31
0.0
1001
PHOENIX7010
1002
{
1070
              62
1070
               0
1002
}
  0
LINE
  5
5644
100
AcDbEntity
  8
0
  6
CONTINUOUS
 62
               0
100
AcDbLine
 10
290.37469323572338
 20
113.59799793908653
 30
0.0
 11
290.48318988325224
 21
113.70649458661535
 31
0.0
1001
PHOENIX7010
1002
{
1070
              62
1070
               0
1002
}
  0
LINE
  5
5645
100
AcDbEntity
  8
0
  6
CONTINUOUS
 62
               0
100
AcDbLine
 10
290.37469323572338
 20
111.47667759552688
 30
0.0
 11
291.20451022681181
 21
112.30649458661526
 31
0.0
1001
PHOENIX7010
1002
{
1070
              62
1070
               0
1002
}
  0
LINE
  5
5646
100
AcDbEntity
  8
0
  6
CONTINUOUS
 62
               0
100
AcDbLine
 10
291.87874072580604
 20
112.98072508560952
 30
0.0
 11
292.26978677264668
 21
113.37177113245016
 31
0.0
1001
PHOENIX7010
1002
{
1070
              62
1070
               0
1002
}
  0
LINE
  5
5647
100
AcDbEntity
  8
0
  6
CONTINUOUS
 62
               0
100
AcDbLine
 10
290.37469323572338
 20
111.12312420493359
 30
0.0
 11
290.93469323572344
 21
111.68312420493365
 31
0.0
1001
PHOENIX7010
1002
{
1070
              62
1070
               0
1002
}
  0
LINE
  5
5648
100
AcDbEntity
  8
0
  6
CONTINUOUS
 62
               0
100
AcDbLine
 10
291.88771362344693
 20
112.63614459265715
 30
0.0
 11
292.40273257346655
 21
113.15116354267676
 31
0.0
1001
PHOENIX7010
1002
{
1070
              62
1070
               0
1002
}
  0
LINE
  5
5649
100
AcDbEntity
  8
0
  6
CONTINUOUS
 62
               0
100
AcDbLine
 10
291.13806361740507
 20
111.8864945866153
 30
0.0
 11
291.58504322968156
 21
112.33347419889176
 31
0.0
1001
PHOENIX7010
1002
{
1070
              62
1070
               0
1002
}
  0
LINE
  5
564A
100
AcDbEntity
  8
0
  6
CONTINUOUS
 62
               0
100
AcDbLine
 10
290.51161700799832
 20
110.90649458661527
 30
0.0
 11
290.93469323572344
 21
111.32957081434039
 31
0.0
1001
PHOENIX7010
1002
{
1070
              62
1070
               0
1002
}
  0
LINE
  5
564B
100
AcDbEntity
  8
0
  6
CONTINUOUS
 62
               0
100
AcDbLine
 10
291.49161700799829
 20
111.8864945866153
 30
0.0
 11
292.47196965708832
 21
112.86684723570527
 31
0.0
1001
PHOENIX7010
1002
{
1070
              62
1070
               0
1002
}
  0
LINE
  5
564C
100
AcDbEntity
  8
0
  6
CONTINUOUS
 62
               0
100
AcDbLine
 10
290.8651703985916
 20
110.90649458661527
 30
0.0
 11
290.93469323572344
 21
110.97601742374712
 31
0.0
1001
PHOENIX7010
1002
{
1070
              62
1070
               0
1002
}
  0
LINE
  5
564D
100
AcDbEntity
  8
0
  6
CONTINUOUS
 62
               0
100
AcDbLine
 10
291.9155120324188
 20
111.95683622044247
 30
0.0
 11
292.40435160189611
 21
112.44567578991982
 31
0.0
1001
PHOENIX7010
1002
{
1070
              62
1070
               0
1002
}
  0
ENDBLK
  5
564F
100
AcDbEntity
  8
0
100
AcDbBlockEnd
  0
BLOCK
  5
565D
100
AcDbEntity
  8
0
100
AcDbBlockBegin
  2
*X14
 70
              65
 10
0.0
 20
0.0
 30
0.0
  3
*X14
  1

  0
LINE
  5
5651
100
AcDbEntity
  8
0
  6
CONTINUOUS
 62
               0
100
AcDbLine
 10
293.77469323572336
 20
111.6946970801874
 30
0.0
 11
294.33469323572342
 21
112.25469708018746
 31
0.0
1001
PHOENIX7010
1002
{
1070
              62
1070
               0
1002
}
  0
LINE
  5
5652
100
AcDbEntity
  8
0
  6
CONTINUOUS
 62
               0
100
AcDbLine
 10
293.77469323572336
 20
112.04825047078066
 30
0.0
 11
294.33469323572342
 21
112.60825047078073
 31
0.0
1001
PHOENIX7010
1002
{
1070
              62
1070
               0
1002
}
  0
LINE
  5
5653
100
AcDbEntity
  8
0
  6
CONTINUOUS
 62
               0
100
AcDbLine
 10
293.77469323572336
 20
112.40180386137395
 30
0.0
 11
294.33469323572342
 21
112.96180386137401
 31
0.0
1001
PHOENIX7010
1002
{
1070
              62
1070
               0
1002
}
  0
LINE
  5
5654
100
AcDbEntity
  8
0
  6
CONTINUOUS
 62
               0
100
AcDbLine
 10
293.77469323572336
 20
112.75535725196721
 30
0.0
 11
294.33469323572342
 21
113.31535725196728
 31
0.0
1001
PHOENIX7010
1002
{
1070
              62
1070
               0
1002
}
  0
LINE
  5
5655
100
AcDbEntity
  8
0
  6
CONTINUOUS
 62
               0
100
AcDbLine
 10
293.77469323572336
 20
113.10891064256049
 30
0.0
 11
294.33469323572342
 21
113.66891064256056
 31
0.0
1001
PHOENIX7010
1002
{
1070
              62
1070
               0
1002
}
  0
LINE
  5
5656
100
AcDbEntity
  8
0
  6
CONTINUOUS
 62
               0
100
AcDbLine
 10
293.77469323572336
 20
113.46246403315375
 30
0.0
 11
294.01872378918495
 21
113.70649458661535
 31
0.0
1001
PHOENIX7010
1002
{
1070
              62
1070
               0
1002
}
  0
LINE
  5
5657
100
AcDbEntity
  8
0
  6
CONTINUOUS
 62
               0
100
AcDbLine
 10
293.77469323572336
 20
111.34114368959411
 30
0.0
 11
294.33469323572342
 21
111.90114368959419
 31
0.0
1001
PHOENIX7010
1002
{
1070
              62
1070
               0
1002
}
  0
LINE
  5
5658
100
AcDbEntity
  8
0
  6
CONTINUOUS
 62
               0
100
AcDbLine
 10
293.77469323572336
 20
110.98759029900086
 30
0.0
 11
294.33469323572342
 21
111.54759029900092
 31
0.0
1001
PHOENIX7010
1002
{
1070
              62
1070
               0
1002
}
  0
LINE
  5
5659
100
AcDbEntity
  8
0
  6
CONTINUOUS
 62
               0
100
AcDbLine
 10
294.04715091393109
 20
110.90649458661528
 30
0.0
 11
294.46715091393105
 21
111.32649458661524
 31
0.0
1001
PHOENIX7010
1002
{
1070
              62
1070
               0
1002
}
  0
LINE
  5
565A
100
AcDbEntity
  8
0
  6
CONTINUOUS
 62
               0
100
AcDbLine
 10
294.40070430452431
 20
110.90649458661528
 30
0.0
 11
294.82070430452433
 21
111.32649458661524
 31
0.0
1001
PHOENIX7010
1002
{
1070
              62
1070
               0
1002
}
  0
LINE
  5
565B
100
AcDbEntity
  8
0
  6
CONTINUOUS
 62
               0
100
AcDbLine
 10
294.75425769511759
 20
110.90649458661528
 30
0.0
 11
295.1742576951176
 21
111.32649458661524
 31
0.0
1001
PHOENIX7010
1002
{
1070
              62
1070
               0
1002
}
  0
LINE
  5
565C
100
AcDbEntity
  8
0
  6
CONTINUOUS
 62
               0
100
AcDbLine
 10
295.10781108571086
 20
110.90649458661528
 30
0.0
 11
295.37469323572338
 21
111.17337673662777
 31
0.0
1001
PHOENIX7010
1002
{
1070
              62
1070
               0
1002
}
  0
ENDBLK
  5
565E
100
AcDbEntity
  8
0
100
AcDbBlockEnd
  0
BLOCK
  5
5672
100
AcDbEntity
  8
0
100
AcDbBlockBegin
  2
*X15
 70
              65
 10
0.0
 20
0.0
 30
0.0
  3
*X15
  1

  0
LINE
  5
5660
100
AcDbEntity
  8
0
  6
CONTINUOUS
 62
               0
100
AcDbLine
 10
296.48573583938713
 20
111.22375916851165
 30
0.0
 11
297.28524509686088
 21
112.02326842598538
 31
0.0
1001
PHOENIX7010
1002
{
1070
              62
1070
               0
1002
}
  0
LINE
  5
5661
100
AcDbEntity
  8
0
  6
CONTINUOUS
 62
               0
100
AcDbLine
 10
297.81830157987162
 20
112.55632490899619
 30
0.0
 11
298.18789494507052
 21
112.92591827419506
 31
0.0
1001
PHOENIX7010
1002
{
1070
              62
1070
               0
1002
}
  0
LINE
  5
5662
100
AcDbEntity
  8
0
  6
CONTINUOUS
 62
               0
100
AcDbLine
 10
296.6761107420142
 20
111.76768746173205
 30
0.0
 11
297.44491437003205
 21
112.53649108974984
 31
0.0
1001
PHOENIX7010
1002
{
1070
              62
1070
               0
1002
}
  0
LINE
  5
5663
100
AcDbEntity
  8
0
  6
CONTINUOUS
 62
               0
100
AcDbLine
 10
297.73440755498507
 20
112.82598427470293
 30
0.0
 11
298.09623295491667
 21
113.18780967463452
 31
0.0
1001
PHOENIX7010
1002
{
1070
              62
1070
               0
1002
}
  0
LINE
  5
5664
100
AcDbEntity
  8
0
  6
CONTINUOUS
 62
               0
100
AcDbLine
 10
296.86648564464127
 20
112.31161575495241
 30
0.0
 11
297.60458364320323
 21
113.0497137535143
 31
0.0
1001
PHOENIX7010
1002
{
1070
              62
1070
               0
1002
}
  0
LINE
  5
5665
100
AcDbEntity
  8
0
  6
CONTINUOUS
 62
               0
100
AcDbLine
 10
297.65051353009858
 20
113.09564364040968
 30
0.0
 11
298.00457096476288
 21
113.44970107507397
 31
0.0
1001
PHOENIX7010
1002
{
1070
              62
1070
               0
1002
}
  0
LINE
  5
5666
100
AcDbEntity
  8
0
  6
CONTINUOUS
 62
               0
100
AcDbLine
 10
297.0568605472684
 20
112.85554404817283
 30
0.0
 11
297.90781108571093
 21
113.70649458661536
 31
0.0
1001
PHOENIX7010
1002
{
1070
              62
1070
               0
1002
}
  0
LINE
  5
5667
100
AcDbEntity
  8
0
  6
CONTINUOUS
 62
               0
100
AcDbLine
 10
297.24723544989558
 20
113.39947234139319
 30
0.0
 11
297.55425769511771
 21
113.70649458661535
 31
0.0
1001
PHOENIX7010
1002
{
1070
              62
1070
               0
1002
}
  0
LINE
  5
5668
100
AcDbEntity
  8
0
  6
CONTINUOUS
 62
               0
100
AcDbLine
 10
296.52202464808397
 20
110.90649458661527
 30
0.0
 11
297.50202464808399
 21
111.88649458661531
 31
0.0
1001
PHOENIX7010
1002
{
1070
              62
1070
               0
1002
}
  0
LINE
  5
5669
100
AcDbEntity
  8
0
  6
CONTINUOUS
 62
               0
100
AcDbLine
 10
297.90219560475811
 20
112.28666554328944
 30
0.0
 11
298.27955693522432
 21
112.66402687375562
 31
0.0
1001
PHOENIX7010
1002
{
1070
              62
1070
               0
1002
}
  0
LINE
  5
566A
100
AcDbEntity
  8
0
  6
CONTINUOUS
 62
               0
100
AcDbLine
 10
296.87557803867725
 20
110.90649458661527
 30
0.0
 11
296.96002832017172
 21
110.99094486810976
 31
0.0
1001
PHOENIX7010
1002
{
1070
              62
1070
               0
1002
}
  0
LINE
  5
566B
100
AcDbEntity
  8
0
  6
CONTINUOUS
 62
               0
100
AcDbLine
 10
297.98608962964471
 20
112.0170061775827
 30
0.0
 11
298.37121892537812
 21
112.40213547331615
 31
0.0
1001
PHOENIX7010
1002
{
1070
              62
1070
               0
1002
}
  0
LINE
  5
566C
100
AcDbEntity
  8
0
  6
CONTINUOUS
 62
               0
100
AcDbLine
 10
297.43557803867731
 20
111.46649458661533
 30
0.0
 11
297.85557803867727
 21
111.88649458661531
 31
0.0
1001
PHOENIX7010
1002
{
1070
              62
1070
               0
1002
}
  0
LINE
  5
566D
100
AcDbEntity
  8
0
  6
CONTINUOUS
 62
               0
100
AcDbLine
 10
297.78913142927058
 20
111.46649458661534
 30
0.0
 11
298.46288091553197
 21
112.14024407287671
 31
0.0
1001
PHOENIX7010
1002
{
1070
              62
1070
               0
1002
}
  0
LINE
  5
566E
100
AcDbEntity
  8
0
  6
CONTINUOUS
 62
               0
100
AcDbLine
 10
298.14268481986386
 20
111.46649458661534
 30
0.0
 11
298.55454290568576
 21
111.87835267243725
 31
0.0
1001
PHOENIX7010
1002
{
1070
              62
1070
               0
1002
}
  0
LINE
  5
566F
100
AcDbEntity
  8
0
  6
CONTINUOUS
 62
               0
100
AcDbLine
 10
298.24274207604651
 20
111.21299845220473
 30
0.0
 11
298.64620489583962
 21
111.61646127199779
 31
0.0
1001
PHOENIX7010
1002
{
1070
              62
1070
               0
1002
}
  0
LINE
  5
5670
100
AcDbEntity
  8
0
  6
CONTINUOUS
 62
               0
100
AcDbLine
 10
298.32433132002961
 20
110.94103430559451
 30
0.0
 11
298.73786688599341
 21
111.35456987155834
 31
0.0
1001
PHOENIX7010
1002
{
1070
              62
1070
               0
1002
}
  0
LINE
  5
5671
100
AcDbEntity
  8
0
  6
CONTINUOUS
 62
               0
100
AcDbLine
 10
298.64334499164363
 20
110.90649458661527
 30
0.0
 11
298.82952887614721
 21
111.09267847111889
 31
0.0
1001
PHOENIX7010
1002
{
1070
              62
1070
               0
1002
}
  0
ENDBLK
  5
5673
100
AcDbEntity
  8
0
100
AcDbBlockEnd
  0
BLOCK
  5
5692
100
AcDbEntity
  8
0
100
AcDbBlockBegin
  2
*X16
 70
              65
 10
0.0
 20
0.0
 30
0.0
  3
*X16
  1

  0
LINE
  5
5675
100
AcDbEntity
  8
0
  6
CONTINUOUS
 62
               0
100
AcDbLine
 10
291.35195978976549
 20
115.41689458661529
 30
0.0
 11
294.35469323572329
 21
118.99541295843829
 31
0.0
1001
PHOENIX7010
1002
{
1070
              62
1070
               0
1002
}
  0
LINE
  5
5676
100
AcDbEntity
  8
0
  6
CONTINUOUS
 62
               0
100
AcDbLine
 10
291.02560796743239
 20
115.41689458661529
 30
0.0
 11
294.35469323572329
 21
119.38434391515339
 31
0.0
1001
PHOENIX7010
1002
{
1070
              62
1070
               0
1002
}
  0
LINE
  5
5677
100
AcDbEntity
  8
0
  6
CONTINUOUS
 62
               0
100
AcDbLine
 10
290.69925614509935
 20
115.41689458661529
 30
0.0
 11
294.35469323572329
 21
119.77327487186851
 31
0.0
1001
PHOENIX7010
1002
{
1070
              62
1070
               0
1002
}
  0
LINE
  5
5678
100
AcDbEntity
  8
0
  6
CONTINUOUS
 62
               0
100
AcDbLine
 10
290.3729043227662
 20
115.41689458661529
 30
0.0
 11
294.35469323572329
 21
120.16220582858362
 31
0.0
1001
PHOENIX7010
1002
{
1070
              62
1070
               0
1002
}
  0
LINE
  5
5679
100
AcDbEntity
  8
0
  6
CONTINUOUS
 62
               0
100
AcDbLine
 10
290.04655250043317
 20
115.41689458661529
 30
0.0
 11
294.35469323572329
 21
120.5511367852987
 31
0.0
1001
PHOENIX7010
1002
{
1070
              62
1070
               0
1002
}
  0
LINE
  5
567A
100
AcDbEntity
  8
0
  6
CONTINUOUS
 62
               0
100
AcDbLine
 10
289.72020067810007
 20
115.41689458661529
 30
0.0
 11
294.35469323572329
 21
120.94006774201381
 31
0.0
1001
PHOENIX7010
1002
{
1070
              62
1070
               0
1002
}
  0
LINE
  5
567B
100
AcDbEntity
  8
0
  6
CONTINUOUS
 62
               0
100
AcDbLine
 10
289.39384885576703
 20
115.41689458661529
 30
0.0
 11
294.35469323572329
 21
121.32899869872892
 31
0.0
1001
PHOENIX7010
1002
{
1070
              62
1070
               0
1002
}
  0
LINE
  5
567C
100
AcDbEntity
  8
0
  6
CONTINUOUS
 62
               0
100
AcDbLine
 10
291.67831161209853
 20
115.41689458661529
 30
0.0
 11
294.35469323572329
 21
118.60648200172321
 31
0.0
1001
PHOENIX7010
1002
{
1070
              62
1070
               0
1002
}
  0
LINE
  5
567D
100
AcDbEntity
  8
0
  6
CONTINUOUS
 62
               0
100
AcDbLine
 10
292.00466343443162
 20
115.41689458661529
 30
0.0
 11
294.35469323572329
 21
118.21755104500809
 31
0.0
1001
PHOENIX7010
1002
{
1070
              62
1070
               0
1002
}
  0
LINE
  5
567E
100
AcDbEntity
  8
0
  6
CONTINUOUS
 62
               0
100
AcDbLine
 10
292.33101525676466
 20
115.41689458661529
 30
0.0
 11
294.35469323572329
 21
117.82862008829299
 31
0.0
1001
PHOENIX7010
1002
{
1070
              62
1070
               0
1002
}
  0
LINE
  5
567F
100
AcDbEntity
  8
0
  6
CONTINUOUS
 62
               0
100
AcDbLine
 10
292.65736707909775
 20
115.41689458661529
 30
0.0
 11
294.35469323572329
 21
117.43968913157788
 31
0.0
1001
PHOENIX7010
1002
{
1070
              62
1070
               0
1002
}
  0
LINE
  5
5680
100
AcDbEntity
  8
0
  6
CONTINUOUS
 62
               0
100
AcDbLine
 10
292.98371890143079
 20
115.41689458661529
 30
0.0
 11
294.35469323572329
 21
117.05075817486279
 31
0.0
1001
PHOENIX7010
1002
{
1070
              62
1070
               0
1002
}
  0
LINE
  5
5681
100
AcDbEntity
  8
0
  6
CONTINUOUS
 62
               0
100
AcDbLine
 10
293.31007072376383
 20
115.41689458661529
 30
0.0
 11
294.35469323572329
 21
116.66182721814772
 31
0.0
1001
PHOENIX7010
1002
{
1070
              62
1070
               0
1002
}
  0
LINE
  5
5682
100
AcDbEntity
  8
0
  6
CONTINUOUS
 62
               0
100
AcDbLine
 10
293.63642254609692
 20
115.41689458661529
 30
0.0
 11
294.35469323572329
 21
116.27289626143258
 31
0.0
1001
PHOENIX7010
1002
{
1070
              62
1070
               0
1002
}
  0
LINE
  5
5683
100
AcDbEntity
  8
0
  6
CONTINUOUS
 62
               0
100
AcDbLine
 10
293.96277436843002
 20
115.41689458661529
 30
0.0
 11
298.7842932357234
 21
121.16295701847284
 31
0.0
1001
PHOENIX7010
1002
{
1070
              62
1070
               0
1002
}
  0
LINE
  5
5684
100
AcDbEntity
  8
0
  6
CONTINUOUS
 62
               0
100
AcDbLine
 10
294.28912619076306
 20
115.41689458661529
 30
0.0
 11
298.7842932357234
 21
120.77402606175774
 31
0.0
1001
PHOENIX7010
1002
{
1070
              62
1070
               0
1002
}
  0
LINE
  5
5685
100
AcDbEntity
  8
0
  6
CONTINUOUS
 62
               0
100
AcDbLine
 10
294.61547801309615
 20
115.41689458661529
 30
0.0
 11
298.7842932357234
 21
120.38509510504265
 31
0.0
1001
PHOENIX7010
1002
{
1070
              62
1070
               0
1002
}
  0
LINE
  5
5686
100
AcDbEntity
  8
0
  6
CONTINUOUS
 62
               0
100
AcDbLine
 10
294.94182983542919
 20
115.41689458661529
 30
0.0
 11
298.7842932357234
 21
119.99616414832754
 31
0.0
1001
PHOENIX7010
1002
{
1070
              62
1070
               0
1002
}
  0
LINE
  5
5687
100
AcDbEntity
  8
0
  6
CONTINUOUS
 62
               0
100
AcDbLine
 10
295.26818165776228
 20
115.41689458661529
 30
0.0
 11
298.7842932357234
 21
119.60723319161244
 31
0.0
1001
PHOENIX7010
1002
{
1070
              62
1070
               0
1002
}
  0
LINE
  5
5688
100
AcDbEntity
  8
0
  6
CONTINUOUS
 62
               0
100
AcDbLine
 10
295.59453348009532
 20
115.41689458661529
 30
0.0
 11
298.7842932357234
 21
119.21830223489732
 31
0.0
1001
PHOENIX7010
1002
{
1070
              62
1070
               0
1002
}
  0
LINE
  5
5689
100
AcDbEntity
  8
0
  6
CONTINUOUS
 62
               0
100
AcDbLine
 10
295.92088530242847
 20
115.41689458661529
 30
0.0
 11
298.7842932357234
 21
118.82937127818224
 31
0.0
1001
PHOENIX7010
1002
{
1070
              62
1070
               0
1002
}
  0
LINE
  5
568A
100
AcDbEntity
  8
0
  6
CONTINUOUS
 62
               0
100
AcDbLine
 10
296.24723712476151
 20
115.41689458661529
 30
0.0
 11
298.7842932357234
 21
118.44044032146714
 31
0.0
1001
PHOENIX7010
1002
{
1070
              62
1070
               0
1002
}
  0
LINE
  5
568B
100
AcDbEntity
  8
0
  6
CONTINUOUS
 62
               0
100
AcDbLine
 10
296.57358894709461
 20
115.41689458661529
 30
0.0
 11
298.7842932357234
 21
118.05150936475202
 31
0.0
1001
PHOENIX7010
1002
{
1070
              62
1070
               0
1002
}
  0
LINE
  5
568C
100
AcDbEntity
  8
0
  6
CONTINUOUS
 62
               0
100
AcDbLine
 10
296.89994076942764
 20
115.41689458661529
 30
0.0
 11
298.7842932357234
 21
117.66257840803691
 31
0.0
1001
PHOENIX7010
1002
{
1070
              62
1070
               0
1002
}
  0
LINE
  5
568D
100
AcDbEntity
  8
0
  6
CONTINUOUS
 62
               0
100
AcDbLine
 10
297.22629259176074
 20
115.41689458661529
 30
0.0
 11
298.7842932357234
 21
117.27364745132184
 31
0.0
1001
PHOENIX7010
1002
{
1070
              62
1070
               0
1002
}
  0
LINE
  5
568E
100
AcDbEntity
  8
0
  6
CONTINUOUS
 62
               0
100
AcDbLine
 10
297.55264441409378
 20
115.41689458661529
 30
0.0
 11
298.7842932357234
 21
116.88471649460672
 31
0.0
1001
PHOENIX7010
1002
{
1070
              62
1070
               0
1002
}
  0
LINE
  5
568F
100
AcDbEntity
  8
0
  6
CONTINUOUS
 62
               0
100
AcDbLine
 10
297.87899623642687
 20
115.41689458661529
 30
0.0
 11
298.7842932357234
 21
116.49578553789161
 31
0.0
1001
PHOENIX7010
1002
{
1070
              62
1070
               0
1002
}
  0
LINE
  5
5690
100
AcDbEntity
  8
0
  6
CONTINUOUS
 62
               0
100
AcDbLine
 10
298.20534805875991
 20
115.41689458661529
 30
0.0
 11
298.7842932357234
 21
116.10685458117649
 31
0.0
1001
PHOENIX7010
1002
{
1070
              62
1070
               0
1002
}
  0
LINE
  5
5691
100
AcDbEntity
  8
0
  6
CONTINUOUS
 62
               0
100
AcDbLine
 10
298.531699881093
 20
115.41689458661529
 30
0.0
 11
298.7842932357234
 21
115.71792362446142
 31
0.0
1001
PHOENIX7010
1002
{
1070
              62
1070
               0
1002
}
  0
ENDBLK
  5
5693
100
AcDbEntity
  8
0
100
AcDbBlockEnd
  0
BLOCK
  5
56A3
100
AcDbEntity
  8
0
100
AcDbBlockBegin
  2
*X17
 70
              65
 10
0.0
 20
0.0
 30
0.0
  3
*X17
  1

  0
LINE
  5
5695
100
AcDbEntity
  8
0
  6
CONTINUOUS
 62
               0
100
AcDbLine
 10
287.62242463257701
 20
115.37121273553404
 30
0.0
 11
288.29469323572346
 21
116.04348133868051
 31
0.0
1001
PHOENIX7010
1002
{
1070
              62
1070
               0
1002
}
  0
LINE
  5
5696
100
AcDbEntity
  8
0
  6
CONTINUOUS
 62
               0
100
AcDbLine
 10
291.08170648365819
 20
118.83049458661526
 30
0.0
 11
291.7539750868047
 21
119.50276318976172
 31
0.0
1001
PHOENIX7010
1002
{
1070
              62
1070
               0
1002
}
  0
LINE
  5
5697
100
AcDbEntity
  8
0
  6
CONTINUOUS
 62
               0
100
AcDbLine
 10
286.96831890894475
 20
115.56563514932569
 30
0.0
 11
288.29469323572346
 21
116.89200947610439
 31
0.0
1001
PHOENIX7010
1002
{
1070
              62
1070
               0
1002
}
  0
LINE
  5
5698
100
AcDbEntity
  8
0
  6
CONTINUOUS
 62
               0
100
AcDbLine
 10
290.23317834623435
 20
118.83049458661526
 30
0.0
 11
291.559552673013
 21
120.15686891339395
 31
0.0
1001
PHOENIX7010
1002
{
1070
              62
1070
               0
1002
}
  0
LINE
  5
5699
100
AcDbEntity
  8
0
  6
CONTINUOUS
 62
               0
100
AcDbLine
 10
286.40815235174921
 20
115.85399672955403
 30
0.0
 11
288.29469323572346
 21
117.74053761352825
 31
0.0
1001
PHOENIX7010
1002
{
1070
              62
1070
               0
1002
}
  0
LINE
  5
569A
100
AcDbEntity
  8
0
  6
CONTINUOUS
 62
               0
100
AcDbLine
 10
289.38465020881046
 20
118.83049458661526
 30
0.0
 11
291.2711910927847
 21
120.71703547058948
 31
0.0
1001
PHOENIX7010
1002
{
1070
              62
1070
               0
1002
}
  0
LINE
  5
569B
100
AcDbEntity
  8
0
  6
CONTINUOUS
 62
               0
100
AcDbLine
 10
285.92648900696861
 20
116.22086152219721
 30
0.0
 11
288.29469323572346
 21
118.5890657509521
 31
0.0
1001
PHOENIX7010
1002
{
1070
              62
1070
               0
1002
}
  0
LINE
  5
569C
100
AcDbEntity
  8
0
  6
CONTINUOUS
 62
               0
100
AcDbLine
 10
288.53612207138661
 20
118.83049458661526
 30
0.0
 11
290.90432630014152
 21
121.19869881537014
 31
0.0
1001
PHOENIX7010
1002
{
1070
              62
1070
               0
1002
}
  0
LINE
  5
569D
100
AcDbEntity
  8
0
  6
CONTINUOUS
 62
               0
100
AcDbLine
 10
285.51785718625342
 20
116.66075783890595
 30
0.0
 11
290.46442998343275
 21
121.60733063608527
 31
0.0
1001
PHOENIX7010
1002
{
1070
              62
1070
               0
1002
}
  0
LINE
  5
569E
100
AcDbEntity
  8
0
  6
CONTINUOUS
 62
               0
100
AcDbLine
 10
285.18369358348315
 20
117.17512237355949
 30
0.0
 11
289.95006544877924
 21
121.94149423885555
 31
0.0
1001
PHOENIX7010
1002
{
1070
              62
1070
               0
1002
}
  0
LINE
  5
569F
100
AcDbEntity
  8
0
  6
CONTINUOUS
 62
               0
100
AcDbLine
 10
284.93308953227495
 20
117.77304645977514
 30
0.0
 11
289.35214136256354
 21
122.19209829006377
 31
0.0
1001
PHOENIX7010
1002
{
1070
              62
1070
               0
1002
}
  0
LINE
  5
56A0
100
AcDbEntity
  8
0
  6
CONTINUOUS
 62
               0
100
AcDbLine
 10
284.78847201724011
 20
118.47695708216416
 30
0.0
 11
288.64823074017454
 21
122.33671580509861
 31
0.0
1001
PHOENIX7010
1002
{
1070
              62
1070
               0
1002
}
  0
LINE
  5
56A1
100
AcDbEntity
  8
0
  6
CONTINUOUS
 62
               0
100
AcDbLine
 10
284.80853558422478
 20
119.34554878657273
 30
0.0
 11
287.77963903576597
 21
122.3166522381139
 31
0.0
1001
PHOENIX7010
1002
{
1070
              62
1070
               0
1002
}
  0
LINE
  5
56A2
100
AcDbEntity
  8
0
  6
CONTINUOUS
 62
               0
100
AcDbLine
 10
285.29598222666112
 20
120.68152356643287
 30
0.0
 11
286.44366425590584
 21
121.82920559567761
 31
0.0
1001
PHOENIX7010
1002
{
1070
              62
1070
               0
1002
}
  0
ENDBLK
  5
56A4
100
AcDbEntity
  8
0
100
AcDbBlockEnd
  0
BLOCK
  5
5771
100
AcDbEntity
  8
0
100
AcDbBlockBegin
  2
*U18
 70
               1
 10
144.28789236759076
 20
271.84996317999992
 30
0.0
  3
*U18
  1

  0
TEXT
  5
5772
100
AcDbEntity
  8
0
  6
CONTINUOUS
 62
               5
100
AcDbText
 10
138.25039236759076
 20
271.2666298466666
 30
0.0
 40
3.5
  1
%%c3.7
 41
1.5
100
AcDbText
  0
ENDBLK
  5
5773
100
AcDbEntity
  8
0
100
AcDbBlockEnd
  0
BLOCK
  5
5777
100
AcDbEntity
  8
0
100
AcDbBlockBegin
  2
*U19
 70
               1
 10
148.55396244821645
 20
278.84996317999992
 30
0.0
  3
*U19
  1

  0
TEXT
  5
5778
100
AcDbEntity
  8
0
  6
CONTINUOUS
 62
               5
100
AcDbText
 10
140.93229069821646
 20
278.2666298466666
 30
0.0
 40
3.5
  1
%%c19.4
 41
1.5
100
AcDbText
  0
ENDBLK
  5
5779
100
AcDbEntity
  8
0
100
AcDbBlockEnd
  0
BLOCK
  5
577D
100
AcDbEntity
  8
0
100
AcDbBlockBegin
  2
*U20
 70
               1
 10
145.23440299308913
 20
174.04059537995545
 30
0.0
  3
*U20
  1

  0
TEXT
  5
577E
100
AcDbEntity
  8
0
  6
CONTINUOUS
 62
               5
100
AcDbText
 10
141.82190299308914
 20
173.45726204662211
 30
0.0
 40
3.5
  1
%%c5
 41
1.5
100
AcDbText
  0
ENDBLK
  5
577F
100
AcDbEntity
  8
0
100
AcDbBlockEnd
  0
BLOCK
  5
5783
100
AcDbEntity
  8
0
100
AcDbBlockBegin
  2
*U21
 70
               1
 10
149.11415867904464
 20
167.59464278014212
 30
0.0
  3
*U21
  1

  0
TEXT
  5
5784
100
AcDbEntity
  8
0
  6
CONTINUOUS
 62
               5
100
AcDbText
 10
137.30165867904464
 20
167.01130944680878
 30
0.0
 40
3.5
  1
(  
 41
1.5
100
AcDbText
  0
TEXT
  5
5785
100
AcDbEntity
  8
0
  6
CONTINUOUS
 62
               5
100
AcDbText
 10
143.60165867904462
 20
167.01130944680878
 30
0.0
 40
3.5
  1
13.72)
 41
1.5
100
AcDbText
  0
ENDBLK
  5
5786
100
AcDbEntity
  8
0
100
AcDbBlockEnd
  0
BLOCK
  5
578A
100
AcDbEntity
  8
0
100
AcDbBlockBegin
  2
*U22
 70
               1
 10
144.4772565967574
 20
213.64223161638947
 30
0.0
  3
*U22
  1

  0
TEXT
  5
578B
100
AcDbEntity
  8
2
  6
CONTINUOUS
 62
               5
100
AcDbText
 10
143.63526257489332
 20
208.41822823383689
 30
0.0
 40
3.5
  1
90°
 50
74.514705170518312
 41
1.5
100
AcDbText
  0
ENDBLK
  5
578C
100
AcDbEntity
  8
0
100
AcDbBlockEnd
  0
BLOCK
  5
5790
100
AcDbEntity
  8
0
100
AcDbBlockBegin
  2
*U23
 70
               1
 10
108.32038842919792
 20
161.0351531558299
 30
0.0
  3
*U23
  1

  0
TEXT
  5
5791
100
AcDbEntity
  8
2
  6
CONTINUOUS
 62
               5
100
AcDbText
 10
104.64538842919792
 20
160.45181982249656
 30
0.0
 40
3.5
  1
30
 41
1.5
100
AcDbText
  0
ENDBLK
  5
5792
100
AcDbEntity
  8
0
100
AcDbBlockEnd
  0
ENDSEC
  0
SECTION
  2
ENTITIES
  0
LINE
  5
68B
100
AcDbEntity
  8
HAUPTEBENE
  6
CONTINUOUS
 62
               1
100
AcDbLine
 10
92.792289830668935
 20
255.80034158999999
 30
0.0
 11
183.68280361950406
 21
255.80034158999999
 31
0.0
1001
PHOENIX7010
1002
{
1070
              62
1070
               1
1070
              41
1040
1.0
1002
}
  0
LINE
  5
68C
100
AcDbEntity
  8
HAUPTEBENE
  6
CONTINUOUS
 62
               1
100
AcDbLine
 10
92.792289830668935
 20
250.63603494999998
 30
0.0
 11
184.13118776371942
 21
250.63603494999998
 31
0.0
1001
PHOENIX7010
1002
{
1070
              62
1070
               1
1070
              41
1040
1.0
1002
}
  0
LINE
  5
68D
100
AcDbEntity
  8
HAUPTEBENE
  6
CONTINUOUS
 62
               1
100
AcDbLine
 10
92.792289830668935
 20
245.47172830999997
 30
0.0
 11
184.06713288597439
 21
245.47172830999997
 31
0.0
1001
PHOENIX7010
1002
{
1070
              62
1070
               1
1070
              41
1040
1.0
1002
}
  0
LINE
  5
68E
100
AcDbEntity
  8
HAUPTEBENE
  6
CONTINUOUS
 62
               1
100
AcDbLine
 10
135.29601519049902
 20
240.30742167
 30
0.0
 11
183.74322219414569
 21
240.30742167
 31
0.0
1001
PHOENIX7010
1002
{
1070
              62
1070
               1
1070
              41
1040
1.0
1002
}
  0
LINE
  5
68F
100
AcDbEntity
  8
HAUPTEBENE
  6
CONTINUOUS
 62
               1
100
AcDbLine
 10
92.792289830668935
 20
240.30742167
 30
0.0
 11
110.21341445016878
 21
240.30742167
 31
0.0
1001
PHOENIX7010
1002
{
1070
              62
1070
               1
1070
              41
1040
1.0
1002
}
  0
LINE
  5
691
100
AcDbEntity
  8
HAUPTEBENE
  6
CONTINUOUS
 62
               1
100
AcDbLine
 10
151.15010990487008
 20
229.97880838999998
 30
0.0
 11
183.93119109303075
 21
229.97880838999998
 31
0.0
1001
PHOENIX7010
1002
{
1070
              62
1070
               1
1070
              41
1040
1.0
1002
}
  0
LINE
  5
692
100
AcDbEntity
  8
HAUPTEBENE
  6
CONTINUOUS
 62
               1
100
AcDbLine
 10
92.792289830668935
 20
229.97880838999998
 30
0.0
 11
108.05057290156469
 21
229.97880838999998
 31
0.0
1001
PHOENIX7010
1002
{
1070
              62
1070
               1
1070
              41
1040
1.0
1002
}
  0
LINE
  5
693
100
AcDbEntity
  8
HAUPTEBENE
  6
CONTINUOUS
 62
               1
100
AcDbLine
 10
152.80650707697259
 20
224.81450175000001
 30
0.0
 11
183.74322219414569
 21
224.81450175000001
 31
0.0
1001
PHOENIX7010
1002
{
1070
              62
1070
               1
1070
              41
1040
1.0
1002
}
  0
LINE
  5
694
100
AcDbEntity
  8
HAUPTEBENE
  6
CONTINUOUS
 62
               1
100
AcDbLine
 10
92.792289830668935
 20
224.81450175000001
 30
0.0
 11
105.54902162229091
 21
224.81450175000001
 31
0.0
1001
PHOENIX7010
1002
{
1070
              62
1070
               1
1070
              41
1040
1.0
1002
}
  0
LINE
  5
695
100
AcDbEntity
  8
HAUPTEBENE
  6
CONTINUOUS
 62
               1
100
AcDbLine
 10
150.91348105600173
 20
214.48588846999999
 30
0.0
 11
183.88419886830951
 21
214.48588846999999
 31
0.0
1001
PHOENIX7010
1002
{
1070
              62
1070
               1
1070
              41
1040
1.0
1002
}
  0
LINE
  5
696
100
AcDbEntity
  8
HAUPTEBENE
  6
CONTINUOUS
 62
               1
100
AcDbLine
 10
92.792289830668935
 20
214.48588846999999
 30
0.0
 11
102.50043363161235
 21
214.48588846999999
 31
0.0
1001
PHOENIX7010
1002
{
1070
              62
1070
               1
1070
              41
1040
1.0
1002
}
  0
LINE
  5
697
100
AcDbEntity
  8
HAUPTEBENE
  6
CONTINUOUS
 62
               1
100
AcDbLine
 10
148.31057325839993
 20
209.32158182999999
 30
0.0
 11
183.79357100634701
 21
209.32158182999999
 31
0.0
1001
PHOENIX7010
1002
{
1070
              62
1070
               1
1070
              41
1040
1.0
1002
}
  0
LINE
  5
698
100
AcDbEntity
  8
HAUPTEBENE
  6
CONTINUOUS
 62
               1
100
AcDbLine
 10
92.792289830668935
 20
209.32158182999999
 30
0.0
 11
108.05031631599493
 21
209.32158182999999
 31
0.0
1001
PHOENIX7010
1002
{
1070
              62
1070
               1
1070
              41
1040
1.0
1002
}
  0
LINE
  5
699
100
AcDbEntity
  8
HAUPTEBENE
  6
CONTINUOUS
 62
               1
100
AcDbLine
 10
146.18091838856162
 20
204.15727518999998
 30
0.0
 11
184.21426330385162
 21
204.15727518999998
 31
0.0
1001
PHOENIX7010
1002
{
1070
              62
1070
               1
1070
              41
1040
1.0
1002
}
  0
LINE
  5
69A
100
AcDbEntity
  8
HAUPTEBENE
  6
CONTINUOUS
 62
               1
100
AcDbLine
 10
92.792289830668935
 20
204.15727518999998
 30
0.0
 11
113.6283736907216
 21
204.15727518999998
 31
0.0
1001
PHOENIX7010
1002
{
1070
              62
1070
               1
1070
              41
1040
1.0
1002
}
  0
LINE
  5
69B
100
AcDbEntity
  8
HAUPTEBENE
  6
CONTINUOUS
 62
               1
100
AcDbLine
 10
135.30328834802771
 20
198.99296854999997
 30
0.0
 11
183.89874408072319
 21
198.99296854999997
 31
0.0
1001
PHOENIX7010
1002
{
1070
              62
1070
               1
1070
              41
1040
1.0
1002
}
  0
LINE
  5
69C
100
AcDbEntity
  8
HAUPTEBENE
  6
CONTINUOUS
 62
               1
100
AcDbLine
 10
92.792289830668935
 20
198.99296854999997
 30
0.0
 11
113.02277701017049
 21
198.99296854999997
 31
0.0
1001
PHOENIX7010
1002
{
1070
              62
1070
               1
1070
              41
1040
1.0
1002
}
  0
LINE
  5
69D
100
AcDbEntity
  8
HAUPTEBENE
  6
CONTINUOUS
 62
               1
100
AcDbLine
 10
92.792289830668935
 20
188.66435526999999
 30
0.0
 11
184.21426330385162
 21
188.66435526999999
 31
0.0
1001
PHOENIX7010
1002
{
1070
              62
1070
               1
1070
              41
1040
1.0
1002
}
  0
LINE
  5
69E
100
AcDbEntity
  8
HAUPTEBENE
  6
ACAD_ISO04W100
 62
               1
100
AcDbLine
 10
88.792289830668935
 20
219.65001199999998
 30
0.0
 11
184.16615221663699
 21
219.65001199999998
 31
0.0
1001
PHOENIX7010
1002
{
1070
              62
1070
               1
1070
              41
1040
1.0
1002
}
  0
LINE
  5
6A1
100
AcDbEntity
  8
HAUPTEBENE
  6
ACAD_ISO04W100
 62
               1
100
AcDbLine
 10
122.79228983066893
 20
97.300060830000007
 30
0.0
 11
122.79228983066893
 21
110.00005777999999
 31
0.0
1001
PHOENIX7010
1002
{
1070
              62
1070
               1
1070
              41
1040
1.0
1002
}
  0
LINE
  5
6A2
100
AcDbEntity
  8
HAUPTEBENE
  6
CONTINUOUS
 62
               7
100
AcDbLine
 10
105.27229594066893
 20
138.00005777999999
 30
0.0
 11
105.27229594066893
 21
108.00006083000001
 31
0.0
1001
PHOENIX7010
1002
{
1070
              62
1070
               7
1070
              41
1040
1.0
1002
}
  0
ARC
  5
6A3
100
AcDbEntity
  8
HAUPTEBENE
  6
CONTINUOUS
 62
               7
100
AcDbCircle
 10
82.373187050668932
 20
102.30006083000001
 30
0.0
 40
3.0000272200000033
100
AcDbArc
 50
182.00012154556637
 51
269.99999997795902
1001
PHOENIX7010
1002
{
1070
              62
1070
               7
1070
              41
1040
1.0
1002
}
  0
LINE
  5
6A4
100
AcDbEntity
  8
HAUPTEBENE
  6
CONTINUOUS
 62
               7
100
AcDbLine
 10
79.17228983066893
 20
108.00005777999999
 30
0.0
 11
79.374987590668937
 21
102.19535501999999
 31
0.0
1001
PHOENIX7010
1002
{
1070
              62
1070
               7
1070
              41
1040
1.0
1002
}
  0
LINE
  5
6A5
100
AcDbEntity
  8
HAUPTEBENE
  6
CONTINUOUS
 62
               7
100
AcDbLine
 10
92.792289830668935
 20
99.300060830000007
 30
0.0
 11
92.792289830668935
 21
108.00006083000001
 31
0.0
1001
PHOENIX7010
1002
{
1070
              62
1070
               7
1070
              41
1040
1.0
1002
}
  0
LINE
  5
6A6
100
AcDbEntity
  8
HAUPTEBENE
  6
CONTINUOUS
 62
               7
100
AcDbLine
 10
84.17228983066893
 20
110.54006083000002
 30
0.0
 11
84.17228983066893
 21
108.00006083000001
 31
0.0
1001
PHOENIX7010
1002
{
1070
              62
1070
               7
1070
              41
1040
1.0
1002
}
  0
LINE
  5
6A7
100
AcDbEntity
  8
HAUPTEBENE
  6
CONTINUOUS
 62
               7
100
AcDbLine
 10
81.17228983066893
 20
110.54006083000002
 30
0.0
 11
84.17228983066893
 21
110.54006083000002
 31
0.0
1001
PHOENIX7010
1002
{
1070
              62
1070
               7
1070
              41
1040
1.0
1002
}
  0
LINE
  5
6A8
100
AcDbEntity
  8
HAUPTEBENE
  6
CONTINUOUS
 62
               7
100
AcDbLine
 10
81.17228983066893
 20
110.00005777999999
 30
0.0
 11
81.17228983066893
 21
138.00005777999999
 31
0.0
1001
PHOENIX7010
1002
{
1070
              62
1070
               7
1070
              41
1040
1.0
1002
}
  0
ARC
  5
6A9
100
AcDbEntity
  8
HAUPTEBENE
  6
CONTINUOUS
 62
               7
100
AcDbCircle
 10
79.17228983066893
 20
110.00005777999999
 30
0.0
 40
2.0
100
AcDbArc
 50
269.99999997795902
 51
360.00000016159788
1001
PHOENIX7010
1002
{
1070
              62
1070
               7
1070
              41
1040
1.0
1002
}
  0
LINE
  5
6AA
100
AcDbEntity
  8
HAUPTEBENE
  6
CONTINUOUS
 62
               1
100
AcDbLine
 10
82.17228983066893
 20
283.00001199999997
 30
0.0
 11
79.465167030668923
 21
285.70716532
 31
0.0
1001
PHOENIX7010
1002
{
1070
              62
1070
               1
1070
              41
1040
1.0
1002
}
  0
ARC
  5
6B6
100
AcDbEntity
  8
HAUPTEBENE
  6
CONTINUOUS
 62
               7
100
AcDbCircle
 10
80.17228983066893
 20
285.00001199999997
 30
0.0
 40
1.0
100
AcDbArc
 50
90.000000183638832
 51
180.00000036727599
1001
PHOENIX7010
1002
{
1070
              62
1070
               7
1070
              41
1040
1.0
1002
}
  0
LINE
  5
6B7
100
AcDbEntity
  8
HAUPTEBENE
  6
CONTINUOUS
 62
               7
100
AcDbLine
 10
92.792289830668935
 20
259.09996318000003
 30
0.0
 11
184.19524264146446
 21
259.09996318000003
 31
0.0
1001
PHOENIX7010
1002
{
1070
              62
1070
               7
1070
              41
1040
1.0
1002
}
  0
LINE
  5
6B8
100
AcDbEntity
  8
HAUPTEBENE
  6
CONTINUOUS
 62
               7
100
AcDbLine
 10
92.792289830668935
 20
180.20006082999998
 30
0.0
 11
184.1090902294755
 21
180.20006082999998
 31
0.0
1001
PHOENIX7010
1002
{
1070
              62
1070
               7
1070
              41
1040
1.0
1002
}
  0
LINE
  5
6B9
100
AcDbEntity
  8
HAUPTEBENE
  6
CONTINUOUS
 62
               1
100
AcDbLine
 10
92.792289830668935
 20
183.50004863000001
 30
0.0
 11
183.84615754353513
 21
183.50004863000001
 31
0.0
1001
PHOENIX7010
1002
{
1070
              62
1070
               1
1070
              41
1040
1.0
1002
}
  0
ARC
  5
6BA
100
AcDbEntity
  8
HAUPTEBENE
  6
CONTINUOUS
 62
               7
100
AcDbCircle
 10
80.17228983066893
 20
154.30001199999998
 30
0.0
 40
1.0
100
AcDbArc
 50
179.99999979432101
 51
269.99999997795902
1001
PHOENIX7010
1002
{
1070
              62
1070
               7
1070
              41
1040
1.0
1002
}
  0
LINE
  5
6BB
100
AcDbEntity
  8
HAUPTEBENE
  6
CONTINUOUS
 62
               7
100
AcDbLine
 10
79.17228983066893
 20
285.00001199999997
 30
0.0
 11
79.17228983066893
 21
154.30001199999998
 31
0.0
1001
PHOENIX7010
1002
{
1070
              62
1070
               7
1070
              41
1040
1.0
1002
}
  0
LINE
  5
6BC
100
AcDbEntity
  8
HAUPTEBENE
  6
CONTINUOUS
 62
               1
100
AcDbLine
 10
82.17228983066893
 20
156.30001199999998
 30
0.0
 11
82.17228983066893
 21
283.00001199999997
 31
0.0
1001
PHOENIX7010
1002
{
1070
              62
1070
               1
1070
              41
1040
1.0
1002
}
  0
LINE
  5
6BD
100
AcDbEntity
  8
HAUPTEBENE
  6
CONTINUOUS
 62
               7
100
AcDbLine
 10
92.792289830668935
 20
286.00001199999997
 30
0.0
 11
92.792289830668935
 21
153.30006083000001
 31
0.0
1001
PHOENIX7010
1002
{
1070
              62
1070
               7
1070
              41
1040
1.0
1002
}
  0
LINE
  5
6BE
100
AcDbEntity
  8
HAUPTEBENE
  6
CONTINUOUS
 62
               1
100
AcDbLine
 10
184.19524264146446
 20
283.00001199999997
 30
0.0
 11
82.17228983066893
 21
283.00001199999997
 31
0.0
1001
PHOENIX7010
1002
{
1070
              62
1070
               1
1070
              41
1040
1.0
1002
}
  0
LINE
  5
6BF
100
AcDbEntity
  8
HAUPTEBENE
  6
CONTINUOUS
 62
               7
100
AcDbLine
 10
80.17228983066893
 20
153.30001199999998
 30
0.0
 11
183.96622952930596
 21
153.30001199999998
 31
0.0
1001
PHOENIX7010
1002
{
1070
              62
1070
               7
1070
              41
1040
1.0
1002
}
  0
LINE
  5
6C0
100
AcDbEntity
  8
HAUPTEBENE
  6
CONTINUOUS
 62
               1
100
AcDbLine
 10
82.17228983066893
 20
156.30001199999998
 30
0.0
 11
184.17426396971393
 21
156.30001199999998
 31
0.0
1001
PHOENIX7010
1002
{
1070
              62
1070
               1
1070
              41
1040
1.0
1002
}
  0
LINE
  5
6C1
100
AcDbEntity
  8
HAUPTEBENE
  6
CONTINUOUS
 62
               7
100
AcDbLine
 10
80.17228983066893
 20
286.00001199999997
 30
0.0
 11
183.96622952930596
 21
286.00001199999997
 31
0.0
1001
PHOENIX7010
1002
{
1070
              62
1070
               7
1070
              41
1040
1.0
1002
}
  0
LINE
  5
6C5
100
AcDbEntity
  8
HAUPTEBENE
  6
PH_FREIHAND
 62
               1
100
AcDbLine
 10
183.96622952930596
 20
153.30001199999998
 30
0.0
 11
183.96622952930596
 21
286.00001199999997
 31
0.0
1001
PHOENIX7010
1002
{
1070
              62
1070
               1
1070
              41
1040
1.0
1002
}
  0
LINE
  5
6C6
100
AcDbEntity
  8
HAUPTEBENE
  6
CONTINUOUS
 62
               1
100
AcDbLine
 10
82.17228983066893
 20
156.30001199999998
 30
0.0
 11
79.465167030668923
 21
153.59285867999995
 31
0.0
1001
PHOENIX7010
1002
{
1070
              62
1070
               1
1070
              41
1040
1.0
1002
}
  0
LINE
  5
71D
100
AcDbEntity
  8
HAUPTEBENE
  6
CONTINUOUS
 62
               1
100
AcDbLine
 10
92.792289830668935
 20
193.82866190999999
 30
0.0
 11
183.84615754353513
 21
193.82866190999999
 31
0.0
1001
PHOENIX7010
1002
{
1070
              62
1070
               1
1070
              41
1040
1.0
1002
}
  0
LINE
  5
71F
100
AcDbEntity
  8
HAUPTEBENE
  6
PH_FREIHAND
 62
               1
100
AcDbLine
 10
183.96622952930596
 20
138.00005777999999
 30
0.0
 11
81.17228983066893
 21
138.00005777999999
 31
0.0
1001
PHOENIX7010
1002
{
1070
              62
1070
               1
1070
              41
1040
1.0
1002
}
  0
LINE
  5
720
100
AcDbEntity
  8
HAUPTEBENE
  6
PH_FREIHAND
 62
               1
100
AcDbLine
 10
183.96622952930596
 20
99.300060830000007
 30
0.0
 11
183.96622952930596
 21
138.00005777999999
 31
0.0
1001
PHOENIX7010
1002
{
1070
              62
1070
               1
1070
              41
1040
1.0
1002
}
  0
LINE
  5
72A
100
AcDbEntity
  8
HAUPTEBENE
  6
CONTINUOUS
 62
               7
100
AcDbLine
 10
183.96622952930596
 20
99.300060830000007
 30
0.0
 11
82.373187050668932
 21
99.300060830000007
 31
0.0
1001
PHOENIX7010
1002
{
1070
              62
1070
               7
1070
              41
1040
1.0
1002
}
  0
LINE
  5
72B
100
AcDbEntity
  8
HAUPTEBENE
  6
CONTINUOUS
 62
               7
100
AcDbLine
 10
84.17228983066893
 20
108.00006083000001
 30
0.0
 11
183.80591575362894
 21
108.00006083000001
 31
0.0
1001
PHOENIX7010
1002
{
1070
              62
1070
               7
1070
              41
1040
1.0
1002
}
  0
LINE
  5
730
100
AcDbEntity
  8
HAUPTEBENE
  6
PH_FREIHAND
 62
               1
100
AcDbLine
 10
106.74636169888412
 20
102.30006083000001
 30
0.0
 11
106.74636169888412
 21
99.300060830000007
 31
0.0
1001
PHOENIX7010
1002
{
1070
              62
1070
               1
1070
              41
1040
1.0
1002
}
  0
LINE
  5
731
100
AcDbEntity
  8
HAUPTEBENE
  6
PH_FREIHAND
 62
               1
100
AcDbLine
 10
106.74636169888412
 20
113.91048683936287
 30
0.0
 11
106.74636169888412
 21
102.30006083000001
 31
0.0
1001
PHOENIX7010
1002
{
1070
              62
1070
               1
1070
              41
1040
1.0
1002
}
  0
LINE
  5
732
100
AcDbEntity
  8
HAUPTEBENE
  6
PH_FREIHAND
 62
               1
100
AcDbLine
 10
137.47711920433312
 20
113.91048683936287
 30
0.0
 11
106.74636169888412
 21
113.91048683936287
 31
0.0
1001
PHOENIX7010
1002
{
1070
              62
1070
               1
1070
              41
1040
1.0
1002
}
  0
LINE
  5
733
100
AcDbEntity
  8
HAUPTEBENE
  6
PH_FREIHAND
 62
               1
100
AcDbLine
 10
137.47711920433312
 20
113.91048683936287
 30
0.0
 11
137.47711920433312
 21
102.30006083000001
 31
0.0
1001
PHOENIX7010
1002
{
1070
              62
1070
               1
1070
              41
1040
1.0
1002
}
  0
LINE
  5
734
100
AcDbEntity
  8
HAUPTEBENE
  6
PH_FREIHAND
 62
               1
100
AcDbLine
 10
137.47711920433312
 20
99.300060830000007
 30
0.0
 11
137.47711920433312
 21
102.30006083000001
 31
0.0
1001
PHOENIX7010
1002
{
1070
              62
1070
               1
1070
              41
1040
1.0
1002
}
  0
TEXT
  5
9CC
102
{ACAD_REACTORS
330
5704
102
}
100
AcDbEntity
  8
0
  6
CONTINUOUS
 62
               1
100
AcDbText
 10
19.0
 20
114.34999999999991
 30
0.0
 40
2.0
  1
"Schutzvermerk nach DIN 34 beachten"
 50
90.0
 41
1.5
100
AcDbText
1001
PHOENIX7010
1002
{
1070
              62
1070
               1
1070
              41
1040
1.0
1002
}
  0
LINE
  5
9CD
102
{ACAD_REACTORS
330
5704
102
}
100
AcDbEntity
  8
0
  6
CONTINUOUS
 62
               1
100
AcDbLine
 10
1.0
 20
295.99999999999989
 30
0.0
 11
1.0
 21
0.9999999999998863
 31
0.0
1001
PHOENIX7010
1002
{
1070
              62
1070
               1
1070
              41
1040
1.0
1002
}
  0
LINE
  5
9CE
102
{ACAD_REACTORS
330
5704
102
}
100
AcDbEntity
  8
0
  6
CONTINUOUS
 62
               1
100
AcDbLine
 10
209.0
 20
295.99999999999989
 30
0.0
 11
1.0
 21
295.99999999999989
 31
0.0
1001
PHOENIX7010
1002
{
1070
              62
1070
               1
1070
              41
1040
1.0
1002
}
  0
LINE
  5
9CF
102
{ACAD_REACTORS
330
5704
102
}
100
AcDbEntity
  8
0
  6
CONTINUOUS
 62
               1
100
AcDbLine
 10
209.0
 20
0.9999999999998863
 30
0.0
 11
209.0
 21
295.99999999999989
 31
0.0
1001
PHOENIX7010
1002
{
1070
              62
1070
               1
1070
              41
1040
1.0
1002
}
  0
LINE
  5
9D0
102
{ACAD_REACTORS
330
5704
102
}
100
AcDbEntity
  8
0
  6
CONTINUOUS
 62
               1
100
AcDbLine
 10
1.0
 20
0.9999999999998863
 30
0.0
 11
209.0
 21
0.9999999999998863
 31
0.0
1001
PHOENIX7010
1002
{
1070
              62
1070
               1
1070
              41
1040
1.0
1002
}
  0
LINE
  5
9D1
102
{ACAD_REACTORS
330
5704
102
}
100
AcDbEntity
  8
0
  6
CONTINUOUS
 62
               3
100
AcDbLine
 10
20.0
 20
291.99999999999989
 30
0.0
 11
20.0
 21
4.9999999999998863
 31
0.0
1001
PHOENIX7010
1002
{
1070
              62
1070
               3
1070
              41
1040
1.0
1002
}
  0
LINE
  5
9D2
102
{ACAD_REACTORS
330
5704
102
}
100
AcDbEntity
  8
0
  6
CONTINUOUS
 62
               3
100
AcDbLine
 10
205.0
 20
291.99999999999989
 30
0.0
 11
20.0
 21
291.99999999999989
 31
0.0
1001
PHOENIX7010
1002
{
1070
              62
1070
               3
1070
              41
1040
1.0
1002
}
  0
LINE
  5
9D3
102
{ACAD_REACTORS
330
5704
102
}
100
AcDbEntity
  8
0
  6
CONTINUOUS
 62
               3
100
AcDbLine
 10
205.0
 20
4.9999999999998863
 30
0.0
 11
205.0
 21
291.99999999999989
 31
0.0
1001
PHOENIX7010
1002
{
1070
              62
1070
               3
1070
              41
1040
1.0
1002
}
  0
LINE
  5
9D4
102
{ACAD_REACTORS
330
5704
102
}
100
AcDbEntity
  8
0
  6
CONTINUOUS
 62
               3
100
AcDbLine
 10
20.0
 20
4.9999999999998863
 30
0.0
 11
205.0
 21
4.9999999999998863
 31
0.0
1001
PHOENIX7010
1002
{
1070
              62
1070
               3
1070
              41
1040
1.0
1002
}
  0
LINE
  5
B6F
102
{ACAD_REACTORS
330
570E
102
}
100
AcDbEntity
  8
0
  6
CONTINUOUS
 62
               5
100
AcDbLine
 10
204.99999999999977
 20
77.999999999999773
 30
0.0
 11
107.49999999999955
 21
77.999999999999773
 31
0.0
1001
PHOENIX7010
1002
{
1070
              62
1070
               5
1070
              41
1040
1.0
1002
}
  0
LINE
  5
B70
102
{ACAD_REACTORS
330
570E
102
}
100
AcDbEntity
  8
0
  6
CONTINUOUS
 62
               5
100
AcDbLine
 10
204.99999999999977
 20
14.499999999999886
 30
0.0
 11
139.99999999999977
 21
14.499999999999886
 31
0.0
1001
PHOENIX7010
1002
{
1070
              62
1070
               5
1070
              41
1040
1.0
1002
}
  0
LINE
  5
B71
102
{ACAD_REACTORS
330
570E
102
}
100
AcDbEntity
  8
0
  6
CONTINUOUS
 62
               5
100
AcDbLine
 10
204.99999999999977
 20
68.999999999999773
 30
0.0
 11
107.49999999999955
 21
68.999999999999773
 31
0.0
1001
PHOENIX7010
1002
{
1070
              62
1070
               5
1070
              41
1040
1.0
1002
}
  0
LINE
  5
B72
102
{ACAD_REACTORS
330
570E
102
}
100
AcDbEntity
  8
0
  6
CONTINUOUS
 62
               5
100
AcDbLine
 10
204.99999999999977
 20
36.499999999999886
 30
0.0
 11
107.49999999999955
 21
36.499999999999886
 31
0.0
1001
PHOENIX7010
1002
{
1070
              62
1070
               5
1070
              41
1040
1.0
1002
}
  0
LINE
  5
B73
102
{ACAD_REACTORS
330
570E
102
}
100
AcDbEntity
  8
0
  6
CONTINUOUS
 62
               5
100
AcDbLine
 10
204.99999999999977
 20
59.999999999999886
 30
0.0
 11
107.49999999999955
 21
59.999999999999886
 31
0.0
1001
PHOENIX7010
1002
{
1070
              62
1070
               5
1070
              41
1040
1.0
1002
}
  0
LINE
  5
B74
102
{ACAD_REACTORS
330
570E
102
}
100
AcDbEntity
  8
0
  6
CONTINUOUS
 62
               5
100
AcDbLine
 10
139.99999999999977
 20
36.499999999999886
 30
0.0
 11
139.99999999999977
 21
4.9999999999998863
 31
0.0
1001
PHOENIX7010
1002
{
1070
              62
1070
               5
1070
              41
1040
1.0
1002
}
  0
LINE
  5
B75
102
{ACAD_REACTORS
330
570E
102
}
100
AcDbEntity
  8
0
  6
CONTINUOUS
 62
               1
100
AcDbLine
 10
117.99999999999955
 20
36.499999999999886
 30
0.0
 11
117.99999999999955
 21
4.9999999999998863
 31
0.0
1001
PHOENIX7010
1002
{
1070
              62
1070
               1
1070
              41
1040
1.0
1002
}
  0
LINE
  5
B76
102
{ACAD_REACTORS
330
570E
102
}
100
AcDbEntity
  8
0
  6
CONTINUOUS
 62
               5
100
AcDbLine
 10
104.99999999999955
 20
75.499999999999773
 30
0.0
 11
104.99999999999955
 21
4.9999999999998863
 31
0.0
1001
PHOENIX7010
1002
{
1070
              62
1070
               5
1070
              41
1040
1.0
1002
}
  0
LINE
  5
B77
102
{ACAD_REACTORS
330
570E
102
}
100
AcDbEntity
  8
0
  6
CONTINUOUS
 62
               1
100
AcDbLine
 10
104.99999999999955
 20
9.9999999999998863
 30
0.0
 11
139.99999999999977
 21
9.9999999999998863
 31
0.0
1001
PHOENIX7010
1002
{
1070
              62
1070
               1
1070
              41
1040
1.0
1002
}
  0
TEXT
  5
B78
102
{ACAD_REACTORS
330
570E
102
}
100
AcDbEntity
  8
0
  6
CONTINUOUS
 62
               1
100
AcDbText
 10
105.99999999999989
 20
5.9999999999998863
 30
0.0
 40
2.0
  1
Ae.Nr:
 41
1.5
100
AcDbText
1001
PHOENIX7010
1002
{
1070
              62
1070
               1
1070
              41
1040
1.0
1002
}
  0
TEXT
  5
B79
102
{ACAD_REACTORS
330
570E
102
}
100
AcDbEntity
  8
0
  6
CONTINUOUS
 62
               1
100
AcDbText
 10
105.99999969973203
 20
11.249999815013325
 30
0.0
 40
2.0
  1
-
 41
1.5
100
AcDbText
1001
PHOENIX7010
1002
{
1070
              62
1070
               1
1070
              41
1040
1.0
1002
}
  0
TEXT
  5
B7A
102
{ACAD_REACTORS
330
570E
102
}
100
AcDbEntity
  8
0
  6
CONTINUOUS
 62
               1
100
AcDbText
 10
105.99999969973203
 20
16.249999815013325
 30
0.0
 40
2.0
  1
-
 41
1.5
100
AcDbText
1001
PHOENIX7010
1002
{
1070
              62
1070
               1
1070
              41
1040
1.0
1002
}
  0
TEXT
  5
B7B
102
{ACAD_REACTORS
330
570E
102
}
100
AcDbEntity
  8
0
  6
CONTINUOUS
 62
               1
100
AcDbText
 10
105.99999969973203
 20
13.749999815013325
 30
0.0
 40
2.0
  1
-
 41
1.5
100
AcDbText
1001
PHOENIX7010
1002
{
1070
              62
1070
               1
1070
              41
1040
1.0
1002
}
  0
TEXT
  5
B7C
102
{ACAD_REACTORS
330
570E
102
}
100
AcDbEntity
  8
0
  6
CONTINUOUS
 62
               1
100
AcDbText
 10
105.99999969973203
 20
23.749999815013325
 30
0.0
 40
2.0
  1
-
 41
1.5
100
AcDbText
1001
PHOENIX7010
1002
{
1070
              62
1070
               1
1070
              41
1040
1.0
1002
}
  0
TEXT
  5
B7D
102
{ACAD_REACTORS
330
570E
102
}
100
AcDbEntity
  8
0
  6
CONTINUOUS
 62
               1
100
AcDbText
 10
105.99999969973203
 20
18.749999815013325
 30
0.0
 40
2.0
  1
-
 41
1.5
100
AcDbText
1001
PHOENIX7010
1002
{
1070
              62
1070
               1
1070
              41
1040
1.0
1002
}
  0
TEXT
  5
B7E
102
{ACAD_REACTORS
330
570E
102
}
100
AcDbEntity
  8
0
  6
CONTINUOUS
 62
               1
100
AcDbText
 10
105.99999969973203
 20
21.249999815013325
 30
0.0
 40
2.0
  1
-
 41
1.5
100
AcDbText
1001
PHOENIX7010
1002
{
1070
              62
1070
               1
1070
              41
1040
1.0
1002
}
  0
TEXT
  5
B7F
102
{ACAD_REACTORS
330
570E
102
}
100
AcDbEntity
  8
0
  6
CONTINUOUS
 62
               5
100
AcDbText
 10
145.99999999999977
 20
10.499999999999886
 30
0.0
 40
2.5
  1
DISK :
 41
1.5
100
AcDbText
1001
PHOENIX7010
1002
{
1070
              62
1070
               5
1070
              41
1040
1.0
1002
}
  0
TEXT
  5
B80
102
{ACAD_REACTORS
330
570E
102
}
100
AcDbEntity
  8
0
  6
CONTINUOUS
 62
               5
100
AcDbText
 10
145.99999999999977
 20
6.2499999999998863
 30
0.0
 40
2.5
  1
Datum:
 41
1.5
100
AcDbText
1001
PHOENIX7010
1002
{
1070
              62
1070
               5
1070
              41
1040
1.0
1002
}
  0
TEXT
  5
B81
102
{ACAD_REACTORS
330
570E
102
}
100
AcDbEntity
  8
0
  6
CONTINUOUS
 62
               1
100
AcDbText
 10
119.99999999999989
 20
5.9999999999998863
 30
0.0
 40
2.0
  1
Datum:
 41
1.5
100
AcDbText
1001
PHOENIX7010
1002
{
1070
              62
1070
               1
1070
              41
1040
1.0
1002
}
  0
TEXT
  5
B82
102
{ACAD_REACTORS
330
570E
102
}
100
AcDbEntity
  8
0
  6
CONTINUOUS
 62
               1
100
AcDbText
 10
118.99999969973203
 20
11.249999815013325
 30
0.0
 40
2.0
  1
-
 41
1.5
100
AcDbText
1001
PHOENIX7010
1002
{
1070
              62
1070
               1
1070
              41
1040
1.0
1002
}
  0
TEXT
  5
B83
102
{ACAD_REACTORS
330
570E
102
}
100
AcDbEntity
  8
0
  6
CONTINUOUS
 62
               1
100
AcDbText
 10
118.99999969973203
 20
16.249999815013325
 30
0.0
 40
2.0
  1
-
 41
1.5
100
AcDbText
1001
PHOENIX7010
1002
{
1070
              62
1070
               1
1070
              41
1040
1.0
1002
}
  0
TEXT
  5
B84
102
{ACAD_REACTORS
330
570E
102
}
100
AcDbEntity
  8
0
  6
CONTINUOUS
 62
               1
100
AcDbText
 10
118.99999969973203
 20
13.749999815013325
 30
0.0
 40
2.0
  1
-
 41
1.5
100
AcDbText
1001
PHOENIX7010
1002
{
1070
              62
1070
               1
1070
              41
1040
1.0
1002
}
  0
TEXT
  5
B85
102
{ACAD_REACTORS
330
570E
102
}
100
AcDbEntity
  8
0
  6
CONTINUOUS
 62
               1
100
AcDbText
 10
118.99999969973203
 20
18.749999815013325
 30
0.0
 40
2.0
  1
-
 41
1.5
100
AcDbText
1001
PHOENIX7010
1002
{
1070
              62
1070
               1
1070
              41
1040
1.0
1002
}
  0
TEXT
  5
B86
102
{ACAD_REACTORS
330
570E
102
}
100
AcDbEntity
  8
0
  6
CONTINUOUS
 62
               1
100
AcDbText
 10
118.99999969973203
 20
23.749999815013325
 30
0.0
 40
2.0
  1
-
 41
1.5
100
AcDbText
1001
PHOENIX7010
1002
{
1070
              62
1070
               1
1070
              41
1040
1.0
1002
}
  0
TEXT
  5
B87
102
{ACAD_REACTORS
330
570E
102
}
100
AcDbEntity
  8
0
  6
CONTINUOUS
 62
               1
100
AcDbText
 10
118.99999969973203
 20
21.249999815013325
 30
0.0
 40
2.0
  1
-
 41
1.5
100
AcDbText
1001
PHOENIX7010
1002
{
1070
              62
1070
               1
1070
              41
1040
1.0
1002
}
  0
TEXT
  5
B88
102
{ACAD_REACTORS
330
570E
102
}
100
AcDbEntity
  8
0
  6
CONTINUOUS
 62
               5
100
AcDbText
 10
162.49999999999977
 20
10.499999999999886
 30
0.0
 40
2.5
  1
2 901 633
 41
1.5
100
AcDbText
1001
PHOENIX7010
1002
{
1070
              62
1070
               5
1070
              41
1040
1.0
1002
}
  0
TEXT
  5
B89
102
{ACAD_REACTORS
330
570E
102
}
100
AcDbEntity
  8
0
  6
CONTINUOUS
 62
               5
100
AcDbText
 10
165.5999999999998
 20
6.2499999999998863
 30
0.0
 40
2.5
  1
 06.05.98 HR
 41
1.5
100
AcDbText
1001
PHOENIX7010
1002
{
1070
              62
1070
               5
1070
              41
1040
1.0
1002
}
  0
TEXT
  5
B8A
102
{ACAD_REACTORS
330
570E
102
}
100
AcDbEntity
  8
0
  6
CONTINUOUS
 62
               7
100
AcDbText
 10
105.99999999999955
 20
53.999999999999886
 30
0.0
 40
3.5
  1
 Artikel: IZP
 41
1.5
100
AcDbText
1001
PHOENIX7010
1002
{
1070
              62
1070
               7
1070
              41
1040
1.0
1002
}
  0
TEXT
  5
B8B
102
{ACAD_REACTORS
330
570E
102
}
100
AcDbEntity
  8
0
  6
CONTINUOUS
 62
               5
100
AcDbText
 10
108.99999999999955
 20
63.499999999999773
 30
0.0
 40
2.5
  1
Zchn.Nr:
 41
1.5
100
AcDbText
1001
PHOENIX7010
1002
{
1070
              62
1070
               5
1070
              41
1040
1.0
1002
}
  0
TEXT
  5
B8C
102
{ACAD_REACTORS
330
570E
102
}
100
AcDbEntity
  8
0
  6
CONTINUOUS
 62
               1
100
AcDbText
 10
108.99999999999977
 20
71.499999999999773
 30
0.0
 40
2.0
  1
Maßstab :
 41
1.5
100
AcDbText
1001
PHOENIX7010
1002
{
1070
              62
1070
               1
1070
              41
1040
1.0
1002
}
  0
ARC
  5
B8D
102
{ACAD_REACTORS
330
570E
102
}
100
AcDbEntity
  8
0
  6
CONTINUOUS
 62
               5
100
AcDbCircle
 10
107.49999999999955
 20
75.499999999999773
 30
0.0
 40
2.5
100
AcDbArc
 50
90.0
 51
180.0
1001
PHOENIX7010
1002
{
1070
              62
1070
               5
1070
              41
1040
1.0
1002
}
  0
ARC
  5
B8E
102
{ACAD_REACTORS
330
570E
102
}
100
AcDbEntity
  8
0
  6
CONTINUOUS
 62
               5
100
AcDbCircle
 10
107.49999999999955
 20
33.999999999999886
 30
0.0
 40
2.5
100
AcDbArc
 50
90.0
 51
180.0
1001
PHOENIX7010
1002
{
1070
              62
1070
               5
1070
              41
1040
1.0
1002
}
  0
TEXT
  5
B8F
102
{ACAD_REACTORS
330
570E
102
}
100
AcDbEntity
  8
0
  6
CONTINUOUS
 62
               1
100
AcDbText
 10
105.99999969973203
 20
26.249999815013325
 30
0.0
 40
2.0
  1
-
 41
1.5
100
AcDbText
1001
PHOENIX7010
1002
{
1070
              62
1070
               1
1070
              41
1040
1.0
1002
}
  0
TEXT
  5
B90
102
{ACAD_REACTORS
330
570E
102
}
100
AcDbEntity
  8
0
  6
CONTINUOUS
 62
               1
100
AcDbText
 10
105.99999969973203
 20
28.749999815013325
 30
0.0
 40
2.0
  1
-
 41
1.5
100
AcDbText
1001
PHOENIX7010
1002
{
1070
              62
1070
               1
1070
              41
1040
1.0
1002
}
  0
TEXT
  5
B91
102
{ACAD_REACTORS
330
570E
102
}
100
AcDbEntity
  8
0
  6
CONTINUOUS
 62
               1
100
AcDbText
 10
105.99999969973203
 20
31.249999815013325
 30
0.0
 40
2.0
  1
-
 41
1.5
100
AcDbText
1001
PHOENIX7010
1002
{
1070
              62
1070
               1
1070
              41
1040
1.0
1002
}
  0
TEXT
  5
B92
102
{ACAD_REACTORS
330
570E
102
}
100
AcDbEntity
  8
0
  6
CONTINUOUS
 62
               1
100
AcDbText
 10
105.99999969973203
 20
33.749999815013325
 30
0.0
 40
2.0
  1
-
 41
1.5
100
AcDbText
1001
PHOENIX7010
1002
{
1070
              62
1070
               1
1070
              41
1040
1.0
1002
}
  0
ARC
  5
B93
102
{ACAD_REACTORS
330
570E
102
}
100
AcDbEntity
  8
0
  6
CONTINUOUS
 62
               5
100
AcDbCircle
 10
107.49999999999955
 20
57.499999999999886
 30
0.0
 40
2.5
100
AcDbArc
 50
90.0
 51
180.0
1001
PHOENIX7010
1002
{
1070
              62
1070
               5
1070
              41
1040
1.0
1002
}
  0
ARC
  5
B94
102
{ACAD_REACTORS
330
570E
102
}
100
AcDbEntity
  8
0
  6
CONTINUOUS
 62
               5
100
AcDbCircle
 10
107.49999999999955
 20
66.499999999999773
 30
0.0
 40
2.5
100
AcDbArc
 50
90.0
 51
180.0
1001
PHOENIX7010
1002
{
1070
              62
1070
               5
1070
              41
1040
1.0
1002
}
  0
TEXT
  5
B95
102
{ACAD_REACTORS
330
570E
102
}
100
AcDbEntity
  8
0
  6
CONTINUOUS
 62
               7
100
AcDbText
 10
131.69999999999959
 20
46.999999999999886
 30
0.0
 40
3.5
  1
 Bearbeitung für
 41
1.5
100
AcDbText
1001
PHOENIX7010
1002
{
1070
              62
1070
               7
1070
              41
1040
1.0
1002
}
  0
TEXT
  5
B96
102
{ACAD_REACTORS
330
570E
102
}
100
AcDbEntity
  8
0
  6
CONTINUOUS
 62
               1
100
AcDbText
 10
118.99999969973203
 20
26.249999815013325
 30
0.0
 40
2.0
  1
-
 41
1.5
100
AcDbText
1001
PHOENIX7010
1002
{
1070
              62
1070
               1
1070
              41
1040
1.0
1002
}
  0
TEXT
  5
B97
102
{ACAD_REACTORS
330
570E
102
}
100
AcDbEntity
  8
0
  6
CONTINUOUS
 62
               1
100
AcDbText
 10
118.99999969973203
 20
28.749999815013325
 30
0.0
 40
2.0
  1
-
 41
1.5
100
AcDbText
1001
PHOENIX7010
1002
{
1070
              62
1070
               1
1070
              41
1040
1.0
1002
}
  0
TEXT
  5
B98
102
{ACAD_REACTORS
330
570E
102
}
100
AcDbEntity
  8
0
  6
CONTINUOUS
 62
               1
100
AcDbText
 10
118.99999969973203
 20
31.249999815013325
 30
0.0
 40
2.0
  1
-
 41
1.5
100
AcDbText
1001
PHOENIX7010
1002
{
1070
              62
1070
               1
1070
              41
1040
1.0
1002
}
  0
TEXT
  5
B99
102
{ACAD_REACTORS
330
570E
102
}
100
AcDbEntity
  8
0
  6
CONTINUOUS
 62
               1
100
AcDbText
 10
118.99999969973203
 20
33.749999815013325
 30
0.0
 40
2.0
  1
-
 41
1.5
100
AcDbText
1001
PHOENIX7010
1002
{
1070
              62
1070
               1
1070
              41
1040
1.0
1002
}
  0
TEXT
  5
B9A
102
{ACAD_REACTORS
330
570E
102
}
100
AcDbEntity
  8
0
  6
CONTINUOUS
 62
               7
100
AcDbText
 10
129.21151399011796
 20
63.499999999999773
 30
0.0
 40
4.0
  1
4K 5050.145.01
 41
1.5
100
AcDbText
1001
PHOENIX7010
1002
{
1070
              62
1070
               7
1070
              41
1040
1.0
1002
}
  0
TEXT
  5
B9B
102
{ACAD_REACTORS
330
570E
102
}
100
AcDbEntity
  8
0
  6
CONTINUOUS
 62
               7
100
AcDbText
 10
129.29618148609325
 20
71.499999999999773
 30
0.0
 40
3.5
  1
1:1
 41
1.5
100
AcDbText
1001
PHOENIX7010
1002
{
1070
              62
1070
               7
1070
              41
1040
1.0
1002
}
  0
LINE
  5
B9C
102
{ACAD_REACTORS
330
570E
102
}
100
AcDbEntity
  8
0
  6
ACAD_ISO04W100
 62
               1
100
AcDbLine
 10
200.49999999999955
 20
68.999999999999773
 30
0.0
 11
200.49999999999955
 21
77.999999999999773
 31
0.0
1001
PHOENIX7010
1002
{
1070
              62
1070
               1
1070
              41
1040
1.0
1002
}
  0
LINE
  5
B9D
102
{ACAD_REACTORS
330
570E
102
}
100
AcDbEntity
  8
0
  6
ACAD_ISO04W100
 62
               1
100
AcDbLine
 10
204.99999999999955
 20
73.499999999999773
 30
0.0
 11
187.49999999999955
 21
73.499999999999773
 31
0.0
1001
PHOENIX7010
1002
{
1070
              62
1070
               1
1070
              41
1040
1.0
1002
}
  0
CIRCLE
  5
B9E
102
{ACAD_REACTORS
330
570E
102
}
100
AcDbEntity
  8
0
  6
CONTINUOUS
 62
               5
100
AcDbCircle
 10
200.49999999999955
 20
73.499999999999773
 30
0.0
 40
3.5
1001
PHOENIX7010
1002
{
1070
              62
1070
               5
1070
              41
1040
1.0
1002
}
  0
LINE
  5
B9F
102
{ACAD_REACTORS
330
570E
102
}
100
AcDbEntity
  8
0
  6
CONTINUOUS
 62
               5
100
AcDbLine
 10
195.49999999999955
 20
76.999999999999773
 30
0.0
 11
188.49999999999955
 21
75.249999999999773
 31
0.0
1001
PHOENIX7010
1002
{
1070
              62
1070
               5
1070
              41
1040
1.0
1002
}
  0
LINE
  5
BA0
102
{ACAD_REACTORS
330
570E
102
}
100
AcDbEntity
  8
0
  6
CONTINUOUS
 62
               5
100
AcDbLine
 10
195.49999999999955
 20
69.999999999999773
 30
0.0
 11
188.49999999999955
 21
71.749999999999773
 31
0.0
1001
PHOENIX7010
1002
{
1070
              62
1070
               5
1070
              41
1040
1.0
1002
}
  0
LINE
  5
BA1
102
{ACAD_REACTORS
330
570E
102
}
100
AcDbEntity
  8
0
  6
CONTINUOUS
 62
               5
100
AcDbLine
 10
188.49999999999955
 20
71.749999999999773
 30
0.0
 11
188.49999999999955
 21
75.249999999999773
 31
0.0
1001
PHOENIX7010
1002
{
1070
              62
1070
               5
1070
              41
1040
1.0
1002
}
  0
LINE
  5
BA2
102
{ACAD_REACTORS
330
570E
102
}
100
AcDbEntity
  8
0
  6
CONTINUOUS
 62
               5
100
AcDbLine
 10
195.49999999999955
 20
69.999999999999773
 30
0.0
 11
195.49999999999955
 21
76.999999999999773
 31
0.0
1001
PHOENIX7010
1002
{
1070
              62
1070
               5
1070
              41
1040
1.0
1002
}
  0
CIRCLE
  5
BA3
102
{ACAD_REACTORS
330
570E
102
}
100
AcDbEntity
  8
0
  6
CONTINUOUS
 62
               5
100
AcDbCircle
 10
200.49999999999955
 20
73.499999999999773
 30
0.0
 40
1.75
1001
PHOENIX7010
1002
{
1070
              62
1070
               5
1070
              41
1040
1.0
1002
}
  0
TEXT
  5
BB5
102
{ACAD_REACTORS
330
570E
102
}
100
AcDbEntity
  8
0
  6
CONTINUOUS
 62
               7
100
AcDbText
 10
131.69999999999959
 20
39.999999999999886
 30
0.0
 40
3.5
  1
 Handgriff neu
 41
1.5
100
AcDbText
1001
PHOENIX7010
1002
{
1070
              62
1070
               7
1070
              41
1040
1.0
1002
}
  0
LINE
  5
BFB
102
{ACAD_REACTORS
330
5705
102
}
100
AcDbEntity
  8
0
  6
ACAD_ISO04W100
 62
               1
100
AcDbLine
 10
122.79228983066893
 20
207.9500119999999
 30
0.0
 11
122.79228983066893
 21
231.35001199999988
 31
0.0
1001
PHOENIX7010
1002
{
1070
              41
1040
1.0
1070
              62
1070
               1
1002
}
  0
DIMENSION
  5
BFC
102
{ACAD_REACTORS
330
C0F
330
5705
102
}
100
AcDbEntity
  8
0
  6
CONTINUOUS
 62
               7
100
AcDbDimension
  2
*D2
 10
124.64228983066896
 20
269.09996317999992
 30
0.0
 11
144.28789236759076
 21
269.09996317999992
 31
0.0
 70
             128
  3
PHOENIX
100
AcDbAlignedDimension
 13
120.94228983066891
 23
219.65001199999995
 33
0.0
 14
124.64228983066896
 24
219.65001199999995
 34
0.0
100
AcDbRotatedDimension
1001
ACAD
1000
DSTYLE
1002
{
1070
               3
1000
%%c<>
1070
             147
1040
1.0
1002
}
  0
DIMENSION
  5
BFD
102
{ACAD_REACTORS
330
C10
330
5705
102
}
100
AcDbEntity
  8
0
  6
CONTINUOUS
 62
               7
100
AcDbDimension
  2
*D3
 10
132.49228983066899
 20
276.09996317999992
 30
0.0
 11
148.55396244821645
 21
276.09996317999992
 31
0.0
 70
             128
  3
PHOENIX
100
AcDbAlignedDimension
 13
113.092289830669
 23
219.65001199999995
 33
0.0
 14
132.49228983066899
 24
219.65001199999995
 34
0.0
100
AcDbRotatedDimension
1001
ACAD
1000
DSTYLE
1002
{
1070
             272
1070
               6
1070
               3
1000
%%c<>
1070
             147
1040
1.0
1070
             271
1070
               6
1002
}
  0
CIRCLE
  5
BFF
102
{ACAD_REACTORS
330
5705
102
}
100
AcDbEntity
  8
0
  6
CONTINUOUS
 62
               7
100
AcDbCircle
 10
115.93335405315945
 20
226.50894777750943
 30
0.0
 40
2.5
1001
PHOENIX7010
1002
{
1070
              41
1040
1.0
1070
              62
1070
               7
1002
}
  0
LINE
  5
C00
102
{ACAD_REACTORS
330
5705
102
}
100
AcDbEntity
  8
0
  6
ACAD_ISO04W100
 62
               1
100
AcDbLine
 10
119.11533456849899
 20
223.32696726216989
 30
0.0
 11
112.7513735378199
 21
229.69092829284887
 31
0.0
1001
PHOENIX7010
1002
{
1070
              41
1040
1.0
1070
              62
1070
               1
1002
}
  0
LINE
  5
C01
102
{ACAD_REACTORS
330
457B
330
5705
102
}
100
AcDbEntity
  8
0
  6
ACAD_ISO04W100
 62
               1
100
AcDbLine
 10
126.46924509283899
 20
223.32696726216989
 30
0.0
 11
132.83320612351798
 21
229.69092829284887
 31
0.0
1001
PHOENIX7010
1002
{
1070
              41
1040
1.0
1070
              62
1070
               1
1002
}
  0
CIRCLE
  5
C02
102
{ACAD_REACTORS
330
5705
102
}
100
AcDbEntity
  8
0
  6
CONTINUOUS
 62
               7
100
AcDbCircle
 10
129.65122560817844
 20
226.50894777750943
 30
0.0
 40
2.5
1001
PHOENIX7010
1002
{
1070
              41
1040
1.0
1070
              62
1070
               7
1002
}
  0
CIRCLE
  5
C03
102
{ACAD_REACTORS
330
5705
102
}
100
AcDbEntity
  8
0
  6
ACAD_ISO04W100
 62
               1
100
AcDbCircle
 10
122.79228983066893
 20
219.65001199999995
 30
0.0
 40
9.6999999999999886
1001
PHOENIX7010
1002
{
1070
              41
1040
1.0
1070
              62
1070
               1
1002
}
  0
DIMENSION
  5
C04
102
{ACAD_REACTORS
330
C13
330
5705
102
}
100
AcDbEntity
  8
0
  6
CONTINUOUS
 62
               1
100
AcDbDimension
  2
*D4
 10
132.15122560817844
 20
171.29059537995545
 30
0.0
 11
145.23440299308913
 21
171.29059537995545
 31
0.0
 70
             128
  3
PHOENIX
100
AcDbAlignedDimension
 13
127.15122560817842
 23
212.79107622249023
 33
0.0
 14
132.15122560817844
 24
212.79107622249023
 34
0.0
100
AcDbRotatedDimension
1001
ACAD
1000
DSTYLE
1002
{
1070
               3
1000
%%c<>
1070
             147
1040
1.0
1002
}
  0
DIMENSION
  5
C05
102
{ACAD_REACTORS
330
C14
330
5705
102
}
100
AcDbEntity
  8
0
  6
CONTINUOUS
 62
               7
100
AcDbDimension
  2
*D5
 10
129.65122560817849
 20
164.66964278014211
 30
0.0
 11
149.11415867904464
 21
164.66964278014211
 31
0.0
 70
             128
  1
(  13.72)
  3
PHOENIX
100
AcDbAlignedDimension
 13
115.93335405315945
 23
212.79107622249035
 33
0.0
 14
129.65122560817849
 24
212.79107622249029
 34
0.0
100
AcDbRotatedDimension
1001
ACAD
1000
DSTYLE
1002
{
1070
               3
1000
{\Fphdim;O} <>
1070
             147
1040
1.0
1002
}
  0
CIRCLE
  5
C06
102
{ACAD_REACTORS
330
5705
102
}
100
AcDbEntity
  8
0
  6
CONTINUOUS
 62
               7
100
AcDbCircle
 10
129.65122560817844
 20
212.79107622249035
 30
0.0
 40
2.5
1001
PHOENIX7010
1002
{
1070
              41
1040
1.0
1070
              62
1070
               7
1002
}
  0
LINE
  5
C07
102
{ACAD_REACTORS
330
C15
330
457C
330
5705
102
}
100
AcDbEntity
  8
0
  6
ACAD_ISO04W100
 62
               1
100
AcDbLine
 10
126.46924509283899
 20
215.97305673782978
 30
0.0
 11
132.83320612351798
 21
209.6090957071508
 31
0.0
1001
PHOENIX7010
1002
{
1070
              41
1040
1.0
1070
              62
1070
               1
1002
}
  0
CIRCLE
  5
C08
102
{ACAD_REACTORS
330
5705
102
}
100
AcDbEntity
  8
0
  6
CONTINUOUS
 62
               7
100
AcDbCircle
 10
122.79228983066893
 20
219.65001199999983
 30
0.0
 40
1.8500000000000227
1001
PHOENIX7010
1002
{
1070
              41
1040
1.0
1070
              62
1070
               7
1002
}
  0
CIRCLE
  5
C09
102
{ACAD_REACTORS
330
5705
102
}
100
AcDbEntity
  8
0
  6
CONTINUOUS
 62
               7
100
AcDbCircle
 10
115.93335405315945
 20
212.79107622249035
 30
0.0
 40
2.5
1001
PHOENIX7010
1002
{
1070
              41
1040
1.0
1070
              62
1070
               7
1002
}
  0
LINE
  5
C0A
102
{ACAD_REACTORS
330
5705
102
}
100
AcDbEntity
  8
0
  6
ACAD_ISO04W100
 62
               1
100
AcDbLine
 10
119.11533456849899
 20
215.97305673782978
 30
0.0
 11
112.7513735378199
 21
209.60909570715091
 31
0.0
1001
PHOENIX7010
1002
{
1070
              41
1040
1.0
1070
              62
1070
               1
1002
}
  0
LINE
  5
C0B
102
{ACAD_REACTORS
330
5705
102
}
100
AcDbEntity
  8
0
  6
CONTINUOUS
 62
               5
100
AcDbLine
 10
137.34059626215407
 20
168.61597504067015
 30
0.0
 11
137.34059626215407
 21
166.63334319087062
 31
0.0
1001
PHOENIX7010
1002
{
1070
              41
1040
1.0
1070
              62
1070
               5
1002
}
  0
LINE
  5
C0C
102
{ACAD_REACTORS
330
5705
102
}
100
AcDbEntity
  8
0
  6
CONTINUOUS
 62
               5
100
AcDbLine
 10
139.87990213580673
 20
168.61597504067015
 30
0.0
 11
137.34059626215407
 21
168.61597504067015
 31
0.0
1001
PHOENIX7010
1002
{
1070
              41
1040
1.0
1070
              62
1070
               5
1002
}
  0
LINE
  5
C0D
102
{ACAD_REACTORS
330
5705
102
}
100
AcDbEntity
  8
0
  6
CONTINUOUS
 62
               5
100
AcDbLine
 10
139.87990213580673
 20
166.63334319087062
 30
0.0
 11
139.87990213580673
 21
168.61597504067015
 31
0.0
1001
PHOENIX7010
1002
{
1070
              41
1040
1.0
1070
              62
1070
               5
1002
}
  0
LINE
  5
C0E
102
{ACAD_REACTORS
330
5705
102
}
100
AcDbEntity
  8
0
  6
CONTINUOUS
 62
               5
100
AcDbLine
 10
137.34059626215407
 20
166.63334319087062
 30
0.0
 11
139.87990213580673
 21
166.63334319087062
 31
0.0
1001
PHOENIX7010
1002
{
1070
              41
1040
1.0
1070
              62
1070
               5
1002
}
  0
LINE
  5
242F
100
AcDbEntity
  8
HAUPTEBENE
  6
CONTINUOUS
 62
               1
100
AcDbLine
 10
92.792289830668935
 20
235.14311502999999
 30
0.0
 11
108.79364612693371
 21
235.14311502999999
 31
0.0
1001
PHOENIX7010
1002
{
1070
              62
1070
               1
1070
              41
1040
1.0
1002
}
  0
LINE
  5
2430
100
AcDbEntity
  8
HAUPTEBENE
  6
CONTINUOUS
 62
               1
100
AcDbLine
 10
148.54719733729507
 20
235.14311502999999
 30
0.0
 11
184.07216776719451
 21
235.14311502999999
 31
0.0
1001
PHOENIX7010
1002
{
1070
              62
1070
               1
1070
              41
1040
1.0
1002
}
  0
LINE
  5
2A60
100
AcDbEntity
  8
0
  6
ACAD_ISO02W100
 62
               5
100
AcDbLine
 10
127.15122560817842
 20
108.00006083000001
 30
0.0
 11
127.15122560817842
 21
99.300060830000007
 31
0.0
1001
PHOENIX7010
1002
{
1070
              41
1040
1.0
1070
              62
1070
               5
1002
}
  0
LINE
  5
2A86
100
AcDbEntity
  8
0
  6
ACAD_ISO02W100
 62
               5
100
AcDbLine
 10
132.15122560817844
 20
108.00006083000001
 30
0.0
 11
132.15122560817844
 21
99.300060830000007
 31
0.0
1001
PHOENIX7010
1002
{
1070
              41
1040
1.0
1070
              62
1070
               5
1002
}
  0
LINE
  5
2A87
100
AcDbEntity
  8
0
  6
ACAD_ISO02W100
 62
               5
100
AcDbLine
 10
118.43335405315945
 20
108.00006083000001
 30
0.0
 11
118.43335405315945
 21
99.300060830000007
 31
0.0
1001
PHOENIX7010
1002
{
1070
              41
1040
1.0
1070
              62
1070
               5
1002
}
  0
LINE
  5
2A88
100
AcDbEntity
  8
0
  6
ACAD_ISO02W100
 62
               5
100
AcDbLine
 10
113.43335405315945
 20
108.00006083000001
 30
0.0
 11
113.43335405315945
 21
99.300060830000007
 31
0.0
1001
PHOENIX7010
1002
{
1070
              41
1040
1.0
1070
              62
1070
               5
1002
}
  0
LINE
  5
2B12
100
AcDbEntity
  8
0
  6
CONTINUOUS
 62
               7
100
AcDbLine
 10
106.74636169888412
 20
102.20006083000001
 30
0.0
 11
137.47711920433312
 21
102.20006083000001
 31
0.0
1001
PHOENIX7010
1002
{
1070
              41
1040
1.0
1070
              62
1070
               7
1002
}
  0
LINE
  5
2B89
100
AcDbEntity
  8
0
  6
CONTINUOUS
 62
               7
100
AcDbLine
 10
120.94228983066891
 20
102.20006083000006
 30
0.0
 11
120.94228983066891
 21
99.300060830000007
 31
0.0
1001
PHOENIX7010
1002
{
1070
              41
1040
1.0
1070
              62
1070
               7
1002
}
  0
LINE
  5
2B8B
100
AcDbEntity
  8
0
  6
CONTINUOUS
 62
               7
100
AcDbLine
 10
124.64228983066896
 20
102.20006083000006
 30
0.0
 11
124.64228983066896
 21
99.300060830000007
 31
0.0
1001
PHOENIX7010
1002
{
1070
              41
1040
1.0
1070
              62
1070
               7
1002
}
  0
INSERT
  5
2CB4
100
AcDbEntity
  8
3
  6
CONTINUOUS
 62
               1
100
AcDbBlockReference
  2
*X6
 10
0.0
 20
0.0
 30
0.0
1001
PHOENIX7010
1002
{
1070
              41
1040
1.0
1002
}
1001
ACAD
1000
HATCH
1002
{
1070
              19
1000
_U
1040
1.5
1040
0.7853981633974483
1070
               0
1000
ASC_BOUNDS
1070
               1
1070
               2
1070
               8
1005
2B1C
1005
2B28
1005
2B33
1005
2B3D
1005
2B47
1005
2B51
1005
2B5B
1005
2B65
1000
ASC_SEEDPOINT
1011
0.0
1021
0.0
1031
0.0
1002
}
  0
TEXT
  5
31D5
100
AcDbEntity
  8
0
  6
CONTINUOUS
 62
               3
100
AcDbText
 10
554.99809512558329
 20
161.3751006065811
 30
0.0
 40
5.0
  1

 41
1.5749999999999997
 72
               1
 11
554.99809512558329
 21
161.3751006065811
 31
0.0
100
AcDbText
1001
PHOENIX7010
1002
{
1070
              62
1070
               3
1070
              41
1040
1.0
1002
}
  0
TEXT
  5
3443
100
AcDbEntity
  8
0
  6
CONTINUOUS
 62
               7
100
AcDbText
 10
565.55566885212465
 20
55.302714547599749
 30
0.0
 40
3.5
  1

 41
1.5
100
AcDbText
1001
PHOENIX7010
1002
{
1070
              62
1070
               7
1070
              41
1040
1.0
1002
}
  0
TEXT
  5
3447
102
{ACAD_REACTORS
330
5706
102
}
100
AcDbEntity
  8
0
  6
CONTINUOUS
 62
               1
100
AcDbText
 10
1813.4063203979508
 20
560.34466862002557
 30
0.0
 40
1.0
  1
 
 41
1.5749999999999997
100
AcDbText
1001
PHOENIX7010
1002
{
1070
              62
1070
               1
1070
              41
1040
2.0
1002
}
  0
TEXT
  5
3448
102
{ACAD_REACTORS
330
5706
102
}
100
AcDbEntity
  8
0
  6
CONTINUOUS
 62
               1
100
AcDbText
 10
1806.9063203979508
 20
560.34466862002557
 30
0.0
 40
1.0
  1
 
 41
1.5749999999999997
100
AcDbText
1001
PHOENIX7010
1002
{
1070
              62
1070
               1
1070
              41
1040
2.0
1002
}
  0
TEXT
  5
3449
102
{ACAD_REACTORS
330
5706
102
}
100
AcDbEntity
  8
0
  6
CONTINUOUS
 62
               1
100
AcDbText
 10
1813.4063203979508
 20
561.59466862002557
 30
0.0
 40
1.0
  1
 
 41
1.5749999999999997
100
AcDbText
1001
PHOENIX7010
1002
{
1070
              62
1070
               1
1070
              41
1040
2.0
1002
}
  0
TEXT
  5
344A
102
{ACAD_REACTORS
330
5706
102
}
100
AcDbEntity
  8
0
  6
CONTINUOUS
 62
               1
100
AcDbText
 10
1806.9063203979508
 20
561.59466862002557
 30
0.0
 40
1.0
  1
 
 41
1.5749999999999997
100
AcDbText
1001
PHOENIX7010
1002
{
1070
              62
1070
               1
1070
              41
1040
2.0
1002
}
  0
TEXT
  5
344B
102
{ACAD_REACTORS
330
5706
102
}
100
AcDbEntity
  8
0
  6
CONTINUOUS
 62
               1
100
AcDbText
 10
1813.4063203979508
 20
562.84466862002557
 30
0.0
 40
1.0
  1
 
 41
1.5749999999999997
100
AcDbText
1001
PHOENIX7010
1002
{
1070
              62
1070
               1
1070
              41
1040
2.0
1002
}
  0
TEXT
  5
344C
102
{ACAD_REACTORS
330
5706
102
}
100
AcDbEntity
  8
0
  6
CONTINUOUS
 62
               1
100
AcDbText
 10
1806.9063203979508
 20
562.84466862002557
 30
0.0
 40
1.0
  1
 
 41
1.5749999999999997
100
AcDbText
1001
PHOENIX7010
1002
{
1070
              62
1070
               1
1070
              41
1040
2.0
1002
}
  0
TEXT
  5
344D
102
{ACAD_REACTORS
330
5706
102
}
100
AcDbEntity
  8
0
  6
CONTINUOUS
 62
               1
100
AcDbText
 10
1813.4063203979508
 20
564.09466862002557
 30
0.0
 40
1.0
  1
 
 41
1.5749999999999997
100
AcDbText
1001
PHOENIX7010
1002
{
1070
              62
1070
               1
1070
              41
1040
2.0
1002
}
  0
TEXT
  5
344E
102
{ACAD_REACTORS
330
5706
102
}
100
AcDbEntity
  8
0
  6
CONTINUOUS
 62
               1
100
AcDbText
 10
1806.9063203979508
 20
564.09466862002557
 30
0.0
 40
1.0
  1
 
 41
1.5749999999999997
100
AcDbText
1001
PHOENIX7010
1002
{
1070
              62
1070
               1
1070
              41
1040
2.0
1002
}
  0
TEXT
  5
344F
102
{ACAD_REACTORS
330
5706
102
}
100
AcDbEntity
  8
0
  6
CONTINUOUS
 62
               1
100
AcDbText
 10
1813.4063203979508
 20
565.34466862002557
 30
0.0
 40
1.0
  1
 
 41
1.5749999999999997
100
AcDbText
1001
PHOENIX7010
1002
{
1070
              62
1070
               1
1070
              41
1040
2.0
1002
}
  0
TEXT
  5
3450
102
{ACAD_REACTORS
330
5706
102
}
100
AcDbEntity
  8
0
  6
CONTINUOUS
 62
               1
100
AcDbText
 10
1806.9063203979508
 20
565.34466862002557
 30
0.0
 40
1.0
  1
 
 41
1.5749999999999997
100
AcDbText
1001
PHOENIX7010
1002
{
1070
              62
1070
               1
1070
              41
1040
2.0
1002
}
  0
TEXT
  5
3451
102
{ACAD_REACTORS
330
5706
102
}
100
AcDbEntity
  8
0
  6
CONTINUOUS
 62
               1
100
AcDbText
 10
1813.4063203979508
 20
566.59466862002557
 30
0.0
 40
1.0
  1
 
 41
1.5749999999999997
100
AcDbText
1001
PHOENIX7010
1002
{
1070
              62
1070
               1
1070
              41
1040
2.0
1002
}
  0
TEXT
  5
3452
102
{ACAD_REACTORS
330
5706
102
}
100
AcDbEntity
  8
0
  6
CONTINUOUS
 62
               1
100
AcDbText
 10
1806.9063203979508
 20
566.59466862002557
 30
0.0
 40
1.0
  1
 
 41
1.5749999999999997
100
AcDbText
1001
PHOENIX7010
1002
{
1070
              62
1070
               1
1070
              41
1040
2.0
1002
}
  0
TEXT
  5
3453
102
{ACAD_REACTORS
330
5706
102
}
100
AcDbEntity
  8
0
  6
CONTINUOUS
 62
               1
100
AcDbText
 10
1813.4063203979508
 20
567.84466862002557
 30
0.0
 40
1.0
  1
 
 41
1.5749999999999997
100
AcDbText
1001
PHOENIX7010
1002
{
1070
              62
1070
               1
1070
              41
1040
2.0
1002
}
  0
TEXT
  5
3454
102
{ACAD_REACTORS
330
5706
102
}
100
AcDbEntity
  8
0
  6
CONTINUOUS
 62
               1
100
AcDbText
 10
1806.9063203979508
 20
567.84466862002557
 30
0.0
 40
1.0
  1
 
 41
1.5749999999999997
100
AcDbText
1001
PHOENIX7010
1002
{
1070
              62
1070
               1
1070
              41
1040
2.0
1002
}
  0
TEXT
  5
3455
102
{ACAD_REACTORS
330
5706
102
}
100
AcDbEntity
  8
0
  6
CONTINUOUS
 62
               1
100
AcDbText
 10
1813.4063203979508
 20
569.09466862002557
 30
0.0
 40
1.0
  1
 
 41
1.5749999999999997
100
AcDbText
1001
PHOENIX7010
1002
{
1070
              62
1070
               1
1070
              41
1040
2.0
1002
}
  0
TEXT
  5
3456
102
{ACAD_REACTORS
330
5706
102
}
100
AcDbEntity
  8
0
  6
CONTINUOUS
 62
               1
100
AcDbText
 10
1806.9063203979508
 20
569.09466862002557
 30
0.0
 40
1.0
  1
 
 41
1.5749999999999997
100
AcDbText
1001
PHOENIX7010
1002
{
1070
              62
1070
               1
1070
              41
1040
2.0
1002
}
  0
TEXT
  5
3457
102
{ACAD_REACTORS
330
5706
102
}
100
AcDbEntity
  8
0
  6
CONTINUOUS
 62
               1
100
AcDbText
 10
1813.4063203979508
 20
570.34466862002557
 30
0.0
 40
1.0
  1
 
 41
1.5749999999999997
100
AcDbText
1001
PHOENIX7010
1002
{
1070
              62
1070
               1
1070
              41
1040
2.0
1002
}
  0
TEXT
  5
3458
102
{ACAD_REACTORS
330
5706
102
}
100
AcDbEntity
  8
0
  6
CONTINUOUS
 62
               1
100
AcDbText
 10
1806.9063203979508
 20
570.34466862002557
 30
0.0
 40
1.0
  1
 
 41
1.5749999999999997
100
AcDbText
1001
PHOENIX7010
1002
{
1070
              62
1070
               1
1070
              41
1040
2.0
1002
}
  0
LINE
  5
3DA6
100
AcDbEntity
  8
0
  6
PH_FREIHAND
 62
               1
100
AcDbLine
 10
46.122521507433873
 20
244.70001199999999
 30
0.0
 11
46.122521507433873
 21
219.60001199999996
 31
0.0
1001
PHOENIX7010
1002
{
1070
              41
1040
1.0
1070
              62
1070
               1
1002
}
  0
ARC
  5
3DA7
100
AcDbEntity
  8
0
  6
CONTINUOUS
 62
               1
100
AcDbCircle
 10
10.786297075180016
 20
232.15001199999995
 30
0.0
 40
18.000000000000014
100
AcDbArc
 50
330.64338616618687
 51
389.35661383381995
1001
PHOENIX7010
1002
{
1070
              62
1070
               1
1070
              41
1040
1.0
1002
}
  0
LINE
  5
3DA8
100
AcDbEntity
  8
0
  6
ACAD_ISO02W100
 62
               1
100
AcDbLine
 10
38.153795501093043
 20
244.70001200000016
 30
0.0
 11
38.153795501093157
 21
219.60001200000002
 31
0.0
1001
PHOENIX7010
1002
{
1070
              62
1070
               1
1070
              41
1040
1.0
1002
}
  0
LINE
  5
3DAA
100
AcDbEntity
  8
0
  6
CONTINUOUS
 62
               1
100
AcDbLine
 10
28.653795501093157
 20
219.60001200000005
 30
0.0
 11
46.122521507433873
 21
219.60001199999996
 31
0.0
1001
PHOENIX7010
1002
{
1070
              62
1070
               1
1070
              41
1040
1.0
1002
}
  0
CIRCLE
  5
3DAB
100
AcDbEntity
  8
0
  6
CONTINUOUS
 62
               1
100
AcDbCircle
 10
35.453795501093111
 20
232.15001200000017
 30
0.0
 40
3.0
1001
PHOENIX7010
1002
{
1070
              62
1070
               1
1070
              41
1040
1.0
1002
}
  0
LINE
  5
3DAC
100
AcDbEntity
  8
0
  6
ACAD_ISO04W100
 62
               1
100
AcDbLine
 10
35.453795501092969
 20
235.15001200000017
 30
0.0
 11
35.45379550109314
 21
229.15001199999995
 31
0.0
1001
PHOENIX7010
1002
{
1070
              62
1070
               1
1070
              41
1040
1.0
1002
}
  0
CIRCLE
  5
3DAD
100
AcDbEntity
  8
0
  6
CONTINUOUS
 62
               1
100
AcDbCircle
 10
35.453795501093111
 20
232.15001200000017
 30
0.0
 40
1.5
1001
PHOENIX7010
1002
{
1070
              62
1070
               1
1070
              41
1040
1.0
1002
}
  0
ARC
  5
3DAE
100
AcDbEntity
  8
0
  6
CONTINUOUS
 62
               1
100
AcDbCircle
 10
28.653795501093136
 20
222.10001200000028
 30
0.0
 40
2.5000000000001243
100
AcDbArc
 50
150.64338616618687
 51
270.0000000000008
1001
PHOENIX7010
1002
{
1070
              62
1070
               1
1070
              41
1040
1.0
1002
}
  0
TEXT
  5
3DAF
100
AcDbEntity
  8
0
  6
CONTINUOUS
 62
               5
100
AcDbText
 10
36.989177611848419
 20
261.7578208984433
 30
0.0
 40
3.5
  1
Fmax=300N
 41
1.5
 11
36.989177611848419
 21
260.70782089844329
 31
0.0
100
AcDbText
 73
               1
1001
PHOENIX7010
1002
{
1070
              41
1040
1.0
1070
              62
1070
               5
1002
}
  0
LINE
  5
3DB0
102
{ACAD_REACTORS
330
5708
102
}
100
AcDbEntity
  8
0
  6
CONTINUOUS
 62
               3
100
AcDbLine
 10
35.453795501092969
 20
264.70001200000002
 30
0.0
 11
35.453795501092969
 21
244.70001200000002
 31
0.0
1001
PHOENIX7010
1002
{
1070
              62
1070
               3
1070
              41
1040
1.0
1002
}
  0
LINE
  5
3DB1
102
{ACAD_REACTORS
330
5708
102
}
100
AcDbEntity
  8
0
  6
CONTINUOUS
 62
               3
100
AcDbLine
 10
33.690525694008244
 20
254.70001200000002
 30
0.0
 11
37.217065308177581
 21
254.70001200000002
 31
0.0
1001
PHOENIX7010
1002
{
1070
              62
1070
               3
1070
              41
1040
1.0
1002
}
  0
LINE
  5
3DB2
102
{ACAD_REACTORS
330
5708
102
}
100
AcDbEntity
  8
0
  6
CONTINUOUS
 62
               3
100
AcDbLine
 10
33.690525694008244
 20
254.70001200000002
 30
0.0
 11
35.453795501092969
 21
244.70001200000002
 31
0.0
1001
PHOENIX7010
1002
{
1070
              62
1070
               3
1070
              41
1040
1.0
1002
}
  0
LINE
  5
3DB3
102
{ACAD_REACTORS
330
5708
102
}
100
AcDbEntity
  8
0
  6
CONTINUOUS
 62
               3
100
AcDbLine
 10
37.217065308177581
 20
254.70001200000002
 30
0.0
 11
35.453795501092969
 21
244.70001200000002
 31
0.0
1001
PHOENIX7010
1002
{
1070
              62
1070
               3
1070
              41
1040
1.0
1002
}
  0
LINE
  5
3DB4
102
{ACAD_REACTORS
330
5708
102
}
100
AcDbEntity
  8
0
  6
CONTINUOUS
 62
               3
100
AcDbLine
 10
34.953795501092969
 20
254.70001200000002
 30
0.0
 11
34.953795501092969
 21
247.53565290980885
 31
0.0
1001
PHOENIX7010
1002
{
1070
              62
1070
               3
1070
              41
1040
1.0
1002
}
  0
LINE
  5
3DB5
102
{ACAD_REACTORS
330
5708
102
}
100
AcDbEntity
  8
0
  6
CONTINUOUS
 62
               3
100
AcDbLine
 10
34.453795501092969
 20
254.70001200000002
 30
0.0
 11
34.453795501092969
 21
250.37129381961768
 31
0.0
1001
PHOENIX7010
1002
{
1070
              62
1070
               3
1070
              41
1040
1.0
1002
}
  0
LINE
  5
3DB6
102
{ACAD_REACTORS
330
5708
102
}
100
AcDbEntity
  8
0
  6
CONTINUOUS
 62
               3
100
AcDbLine
 10
33.953795501092969
 20
254.70001200000002
 30
0.0
 11
33.953795501092969
 21
253.20693472942651
 31
0.0
1001
PHOENIX7010
1002
{
1070
              62
1070
               3
1070
              41
1040
1.0
1002
}
  0
LINE
  5
3DB7
102
{ACAD_REACTORS
330
5708
102
}
100
AcDbEntity
  8
0
  6
CONTINUOUS
 62
               3
100
AcDbLine
 10
35.953795501092969
 20
254.70001200000002
 30
0.0
 11
35.953795501092969
 21
247.53565290980885
 31
0.0
1001
PHOENIX7010
1002
{
1070
              62
1070
               3
1070
              41
1040
1.0
1002
}
  0
LINE
  5
3DB8
102
{ACAD_REACTORS
330
5708
102
}
100
AcDbEntity
  8
0
  6
CONTINUOUS
 62
               3
100
AcDbLine
 10
36.453795501092969
 20
254.70001200000002
 30
0.0
 11
36.453795501092969
 21
250.37129381961768
 31
0.0
1001
PHOENIX7010
1002
{
1070
              62
1070
               3
1070
              41
1040
1.0
1002
}
  0
LINE
  5
3DB9
102
{ACAD_REACTORS
330
5708
102
}
100
AcDbEntity
  8
0
  6
CONTINUOUS
 62
               3
100
AcDbLine
 10
36.953795501092969
 20
254.70001200000002
 30
0.0
 11
36.953795501092969
 21
253.20693472942651
 31
0.0
1001
PHOENIX7010
1002
{
1070
              62
1070
               3
1070
              41
1040
1.0
1002
}
  0
LINE
  5
3DBA
100
AcDbEntity
  8
0
  6
CONTINUOUS
 62
               1
100
AcDbLine
 10
28.653795501093043
 20
244.70001200000007
 30
0.0
 11
46.122521507433873
 21
244.70001199999999
 31
0.0
1001
PHOENIX7010
1002
{
1070
              62
1070
               1
1070
              41
1040
1.0
1002
}
  0
ARC
  5
3DBB
100
AcDbEntity
  8
0
  6
CONTINUOUS
 62
               1
100
AcDbCircle
 10
28.653795501093065
 20
242.20001200000019
 30
0.0
 40
2.4999999999999529
100
AcDbArc
 50
90.00000000000081
 51
209.35661383381995
1001
PHOENIX7010
1002
{
1070
              62
1070
               1
1070
              41
1040
1.0
1002
}
  0
LINE
  5
3E04
102
{ACAD_REACTORS
330
4DBC
330
5709
102
}
100
AcDbEntity
  8
0
  6
ACAD_ISO04W100
 62
               1
100
AcDbLine
 10
122.79228983066895
 20
194.65001199999998
 30
0.0
 11
122.79228983066895
 21
239.65001199999998
 31
0.0
1001
PHOENIX7010
1002
{
1070
              62
1070
               1
1070
              41
1040
1.0
1002
}
  0
LINE
  5
3E05
102
{ACAD_REACTORS
330
5709
102
}
100
AcDbEntity
  8
0
  6
ACAD_ISO04W100
 62
               1
100
AcDbLine
 10
93.194145300668936
 20
219.65001199999998
 30
0.0
 11
142.79228983066895
 21
219.65001199999998
 31
0.0
1001
PHOENIX7010
1002
{
1070
              62
1070
               1
1070
              41
1040
1.0
1002
}
  0
LINE
  5
3E06
102
{ACAD_REACTORS
330
5709
102
}
100
AcDbEntity
  8
0
  6
ACAD_ISO04W100
 62
               1
100
AcDbLine
 10
22.098431038835258
 20
232.15001199999998
 30
0.0
 11
93.194145300668936
 21
232.15001199999998
 31
0.0
1001
PHOENIX7010
1002
{
1070
              62
1070
               1
1070
              41
1040
1.0
1002
}
  0
LINE
  5
3E07
102
{ACAD_REACTORS
330
5709
102
}
100
AcDbEntity
  8
0
  6
CONTINUOUS
 62
               1
100
AcDbLine
 10
135.52025614066901
 20
232.37779519999995
 30
0.0
 11
129.10570536066899
 21
238.7921018399999
 31
0.0
1001
PHOENIX7010
1002
{
1070
              62
1070
               1
1070
              41
1040
1.0
1002
}
  0
ARC
  5
3E08
102
{ACAD_REACTORS
330
5709
102
}
100
AcDbEntity
  8
0
  6
CONTINUOUS
 62
               1
100
AcDbCircle
 10
114.96349344066897
 20
224.65001199999998
 30
0.0
 40
20.000021569999998
100
AcDbArc
 50
44.999752654859435
 51
89.999999977957387
1001
PHOENIX7010
1002
{
1070
              62
1070
               1
1070
              41
1040
1.0
1002
}
  0
ARC
  5
3E09
102
{ACAD_REACTORS
330
5709
102
}
100
AcDbEntity
  8
0
  6
CONTINUOUS
 62
               1
100
AcDbCircle
 10
93.194145300668936
 20
209.65001199999998
 30
0.0
 40
10.000010789999997
100
AcDbArc
 50
44.999752654859435
 51
89.999999977957387
1001
PHOENIX7010
1002
{
1070
              62
1070
               1
1070
              41
1040
1.0
1002
}
  0
LINE
  5
3E0A
102
{ACAD_REACTORS
330
5709
102
}
100
AcDbEntity
  8
0
  6
CONTINUOUS
 62
               1
100
AcDbLine
 10
100.26525126066889
 20
216.72105692000005
 30
0.0
 11
110.06438456066888
 21
206.92198465000004
 31
0.0
1001
PHOENIX7010
1002
{
1070
              62
1070
               1
1070
              41
1040
1.0
1002
}
  0
CIRCLE
  5
3E0B
102
{ACAD_REACTORS
330
5709
102
}
100
AcDbEntity
  8
0
  6
CONTINUOUS
 62
               1
100
AcDbCircle
 10
122.79228983066895
 20
219.65001199999998
 30
0.0
 40
18.000062580000002
1001
PHOENIX7010
1002
{
1070
              62
1070
               1
1070
              41
1040
1.0
1002
}
  0
LINE
  5
3E0C
102
{ACAD_REACTORS
330
5709
102
}
100
AcDbEntity
  8
0
  6
CONTINUOUS
 62
               1
100
AcDbLine
 10
114.96349344066897
 20
244.65001199999998
 30
0.0
 11
49.542289830668949
 21
244.65001199999998
 31
0.0
1001
PHOENIX7010
1002
{
1070
              62
1070
               1
1070
              41
1040
1.0
1002
}
  0
LINE
  5
3E0D
102
{ACAD_REACTORS
330
5709
102
}
100
AcDbEntity
  8
0
  6
CONTINUOUS
 62
               1
100
AcDbLine
 10
49.542289830668949
 20
219.65001199999998
 30
0.0
 11
93.194145300668936
 21
219.65001199999998
 31
0.0
1001
PHOENIX7010
1002
{
1070
              62
1070
               1
1070
              41
1040
1.0
1002
}
  0
LINE
  5
3E0E
102
{ACAD_REACTORS
330
5709
102
}
100
AcDbEntity
  8
0
  6
PH_FREIHAND
 62
               1
100
AcDbLine
 10
49.542289830668949
 20
244.65001199999998
 30
0.0
 11
49.542289830668949
 21
219.65001199999998
 31
0.0
1001
PHOENIX7010
1002
{
1070
              62
1070
               1
1070
              41
1040
1.0
1002
}
  0
DIMENSION
  5
3FD6
102
{ACAD_REACTORS
330
457D
102
}
100
AcDbEntity
  8
2
  6
CONTINUOUS
 62
               7
100
AcDbDimension
  2
*D9
 10
132.83320612351798
 20
209.6090957071508
 30
0.0
 11
147.12742887198274
 21
212.90800623435265
 31
0.0
 70
             130
  3
PHOENIX
100
AcDb2LineAngularDimension
 13
126.46924509283899
 23
223.32696726216989
 33
0.0
 14
132.83320612351798
 24
229.69092829284887
 34
0.0
 15
126.46924509283899
 25
215.97305673782978
 35
0.0
 16
147.18366002260879
 26
226.18565994521867
 36
0.0
1001
ACAD
1000
DSTYLE
1002
{
1070
              79
1070
               2
1070
             147
1040
1.0
1070
             179
1070
               6
1070
             271
1070
               6
1070
             272
1070
               6
1002
}
  0
DIMENSION
  5
47EA
102
{ACAD_REACTORS
330
4DBD
102
}
100
AcDbEntity
  8
2
  6
CONTINUOUS
 62
               7
100
AcDbDimension
  2
*D10
 10
92.792289830668921
 20
158.2851531558299
 30
0.0
 11
108.32038842919792
 21
158.2851531558299
 31
0.0
 70
             128
  3
PHOENIX
100
AcDbAlignedDimension
 13
122.79228983066895
 23
194.65001199999998
 33
0.0
 14
92.792289830668921
 24
162.77794165468728
 34
0.0
100
AcDbRotatedDimension
1001
ACAD
1000
DSTYLE
1002
{
1070
             147
1040
1.0
1070
             271
1070
               6
1070
             272
1070
               6
1002
}
  0
LINE
  5
56A5
102
{ACAD_REACTORS
330
570C
102
}
100
AcDbEntity
  8
0
  6
CONTINUOUS
 62
               5
100
AcDbLine
 10
186.59999999999991
 20
24.874016446212181
 30
0.0
 11
186.59999999999991
 21
22.074016446212113
 31
0.0
1001
PHOENIX7010
1002
{
1070
              62
1070
               5
1070
              41
1040
1.0
1002
}
  0
LINE
  5
56A6
102
{ACAD_REACTORS
330
570C
102
}
100
AcDbEntity
  8
0
  6
CONTINUOUS
 62
               5
100
AcDbLine
 10
188.06960000000004
 20
24.874016446212181
 30
0.0
 11
186.59999999999991
 21
24.874016446212181
 31
0.0
1001
PHOENIX7010
1002
{
1070
              62
1070
               5
1070
              41
1040
1.0
1002
}
  0
ARC
  5
56A7
102
{ACAD_REACTORS
330
570C
102
}
100
AcDbEntity
  8
0
  6
CONTINUOUS
 62
               5
100
AcDbCircle
 10
188.06999999999994
 20
24.174016446212136
 30
0.0
 40
0.7022364274231688
100
AcDbArc
 50
293.49856567596197
 51
450.03274044187759
1001
PHOENIX7010
1002
{
1070
              62
1070
               5
1070
              41
1040
1.0
1002
}
  0
LINE
  5
56A8
102
{ACAD_REACTORS
330
570C
102
}
100
AcDbEntity
  8
0
  6
CONTINUOUS
 62
               5
100
AcDbLine
 10
188.0
 20
22.074016446212113
 30
0.0
 11
186.59999999999991
 21
22.074016446212113
 31
0.0
1001
PHOENIX7010
1002
{
1070
              62
1070
               5
1070
              41
1040
1.0
1002
}
  0
ARC
  5
56A9
102
{ACAD_REACTORS
330
570C
102
}
100
AcDbEntity
  8
0
  6
CONTINUOUS
 62
               5
100
AcDbCircle
 10
188.09206329112521
 20
22.821953155076244
 30
0.0
 40
0.7535814289374009
100
AcDbArc
 50
262.98277817194344
 51
429.98408561047205
1001
PHOENIX7010
1002
{
1070
              62
1070
               5
1070
              41
1040
1.0
1002
}
  0
TEXT
  5
56AA
102
{ACAD_REACTORS
330
570D
102
}
100
AcDbEntity
  8
0
  6
CONTINUOUS
 62
               1
100
AcDbText
 10
176.17940898978281
 20
18.734112845135655
 30
0.0
 40
1.3999999999999999
  1
A Phoenix Mecano Company
 41
1.2
100
AcDbText
1001
PHOENIX7010
1002
{
1070
              62
1070
               5
1070
              41
1040
1.0
1002
}
  0
INSERT
  5
56AB
102
{ACAD_REACTORS
330
570D
102
}
100
AcDbEntity
  8
0
  6
CONTINUOUS
 62
               1
100
AcDbBlockReference
  2
*X16
 10
-95.89469323572348
 20
-88.832478140403168
 30
0.0
1001
PHOENIX7010
1002
{
1070
              41
1040
1.0
1002
}
1001
ACAD
1000
HATCH
1002
{
1070
              19
1000
_U
1040
0.25
1040
0.8726646259971648
1070
               0
1000
ASC_BOUNDS
1070
               1
1070
               2
1070
               6
1005
0
1005
0
1005
0
1005
0
1005
0
1005
0
1000
ASC_SEEDPOINT
1011
-7000.0
1021
-7000.0
1031
0.0
1002
}
  0
INSERT
  5
56AC
102
{ACAD_REACTORS
330
570D
102
}
100
AcDbEntity
  8
0
  6
CONTINUOUS
 62
               1
100
AcDbBlockReference
  2
*X13
 10
-95.89469323572348
 20
-88.832478140403168
 30
0.0
1001
PHOENIX7010
1002
{
1070
              41
1040
1.0
1002
}
1001
ACAD
1000
HATCH
1002
{
1070
              19
1000
_U
1040
0.25
1040
0.7853981633974483
1070
               0
1000
ASC_BOUNDS
1070
               1
1070
               2
1070
              10
1005
0
1005
0
1005
0
1005
0
1005
0
1005
0
1005
0
1005
0
1005
0
1005
0
1000
ASC_SEEDPOINT
1011
-7000.0
1021
-7000.0
1031
0.0
1002
}
  0
LINE
  5
56AD
102
{ACAD_REACTORS
330
570D
102
}
100
AcDbEntity
  8
0
  6
CONTINUOUS
 62
               1
100
AcDbLine
 10
198.57039999999995
 20
32.874016446212181
 30
0.0
 11
195.9515656638099
 21
29.753105573350581
 31
0.0
1001
PHOENIX7010
1002
{
1070
              62
1070
               1
1070
              41
1040
1.0
1002
}
  0
LINE
  5
56AE
102
{ACAD_REACTORS
330
570D
102
}
100
AcDbEntity
  8
0
  6
CONTINUOUS
 62
               1
100
AcDbLine
 10
193.20000000000005
 20
26.47401644621209
 30
0.0
 11
203.0
 21
26.47401644621209
 31
0.0
1001
PHOENIX7010
1002
{
1070
              62
1070
               1
1070
              41
1040
1.0
1002
}
  0
ARC
  5
56AF
102
{ACAD_REACTORS
330
570D
102
}
100
AcDbEntity
  8
0
  6
CONTINUOUS
 62
               5
100
AcDbCircle
 10
195.66999999999985
 20
23.964016446212099
 30
0.0
 40
0.910000000000025
100
AcDbArc
 50
270.0
 51
450.0
1001
PHOENIX7010
1002
{
1070
              62
1070
               5
1070
              41
1040
1.0
1002
}
  0
INSERT
  5
56B0
102
{ACAD_REACTORS
330
570D
102
}
100
AcDbEntity
  8
0
  6
CONTINUOUS
 62
               1
100
AcDbBlockReference
  2
*X12
 10
-95.89469323572348
 20
-88.832478140403168
 30
0.0
1001
PHOENIX7010
1002
{
1070
              41
1040
1.0
1002
}
1001
ACAD
1000
HATCH
1002
{
1070
              19
1000
_U
1040
0.25
1040
0.7853981633974483
1070
               0
1000
ASC_BOUNDS
1070
               1
1070
               2
1070
               8
1005
0
1005
0
1005
0
1005
0
1005
0
1005
0
1005
0
1005
0
1000
ASC_SEEDPOINT
1011
-7000.0
1021
-7000.0
1031
0.0
1002
}
  0
INSERT
  5
56B1
102
{ACAD_REACTORS
330
570D
102
}
100
AcDbEntity
  8
0
  6
CONTINUOUS
 62
               1
100
AcDbBlockReference
  2
*X11
 10
-95.89469323572348
 20
-88.832478140403168
 30
0.0
1001
PHOENIX7010
1002
{
1070
              41
1040
1.0
1002
}
1001
ACAD
1000
HATCH
1002
{
1070
              19
1000
_U
1040
0.25
1040
0.7853981633974483
1070
               0
1000
ASC_BOUNDS
1070
               1
1070
               2
1070
              14
1005
0
1005
0
1005
0
1005
0
1005
0
1005
0
1005
0
1005
0
1005
0
1005
0
1005
0
1005
0
1005
0
1005
0
1000
ASC_SEEDPOINT
1011
-7000.0
1021
-7000.0
1031
0.0
1002
}
  0
LINE
  5
56B2
102
{ACAD_REACTORS
330
570D
102
}
100
AcDbEntity
  8
0
  6
CONTINUOUS
 62
               5
100
AcDbLine
 10
194.4799999999999
 20
24.874016446212181
 30
0.0
 11
194.4799999999999
 21
22.074016446212113
 31
0.0
1001
PHOENIX7010
1002
{
1070
              62
1070
               5
1070
              41
1040
1.0
1002
}
  0
ARC
  5
56B3
102
{ACAD_REACTORS
330
570D
102
}
100
AcDbEntity
  8
0
  6
CONTINUOUS
 62
               5
100
AcDbCircle
 10
191.62400000000002
 20
23.594016446212095
 30
0.0
 40
1.3439999999998804
100
AcDbArc
 50
0.0
 51
180.0
1001
PHOENIX7010
1002
{
1070
              62
1070
               5
1070
              41
1040
1.0
1002
}
  0
LINE
  5
56B4
102
{ACAD_REACTORS
330
570D
102
}
100
AcDbEntity
  8
0
  6
CONTINUOUS
 62
               5
100
AcDbLine
 10
186.59999999999991
 20
24.874016446212181
 30
0.0
 11
186.59999999999991
 21
22.074016446212113
 31
0.0
1001
PHOENIX7010
1002
{
1070
              62
1070
               5
1070
              41
1040
1.0
1002
}
  0
ARC
  5
56B5
102
{ACAD_REACTORS
330
570D
102
}
100
AcDbEntity
  8
0
  6
CONTINUOUS
 62
               5
100
AcDbCircle
 10
188.06999999999994
 20
24.174016446212136
 30
0.0
 40
0.7022364274231688
100
AcDbArc
 50
293.49856567596197
 51
450.03274044187759
1001
PHOENIX7010
1002
{
1070
              62
1070
               5
1070
              41
1040
1.0
1002
}
  0
LINE
  5
56B6
102
{ACAD_REACTORS
330
570D
102
}
100
AcDbEntity
  8
0
  6
CONTINUOUS
 62
               5
100
AcDbLine
 10
188.0
 20
22.074016446212113
 30
0.0
 11
186.59999999999991
 21
22.074016446212113
 31
0.0
1001
PHOENIX7010
1002
{
1070
              62
1070
               5
1070
              41
1040
1.0
1002
}
  0
ARC
  5
56B7
102
{ACAD_REACTORS
330
570D
102
}
100
AcDbEntity
  8
0
  6
CONTINUOUS
 62
               5
100
AcDbCircle
 10
187.86000000000001
 20
22.914016446212145
 30
0.0
 40
0.4200000000000728
100
AcDbArc
 50
270.0
 51
450.0
1001
PHOENIX7010
1002
{
1070
              62
1070
               5
1070
              41
1040
1.0
1002
}
  0
ARC
  5
56B8
102
{ACAD_REACTORS
330
570D
102
}
100
AcDbEntity
  8
0
  6
CONTINUOUS
 62
               5
100
AcDbCircle
 10
187.86000000000001
 20
24.104016446212086
 30
0.0
 40
0.3500000000000227
100
AcDbArc
 50
270.0
 51
450.0
1001
PHOENIX7010
1002
{
1070
              62
1070
               5
1070
              41
1040
1.0
1002
}
  0
LINE
  5
56B9
102
{ACAD_REACTORS
330
570D
102
}
100
AcDbEntity
  8
0
  6
CONTINUOUS
 62
               5
100
AcDbLine
 10
187.86000000000001
 20
23.334016446212104
 30
0.0
 11
187.16000000000008
 21
23.334016446212104
 31
0.0
1001
PHOENIX7010
1002
{
1070
              62
1070
               5
1070
              41
1040
1.0
1002
}
  0
LINE
  5
56BA
102
{ACAD_REACTORS
330
570D
102
}
100
AcDbEntity
  8
0
  6
CONTINUOUS
 62
               5
100
AcDbLine
 10
187.16000000000008
 20
23.334016446212104
 30
0.0
 11
187.16000000000008
 21
22.494016446212072
 31
0.0
1001
PHOENIX7010
1002
{
1070
              62
1070
               5
1070
              41
1040
1.0
1002
}
  0
LINE
  5
56BB
102
{ACAD_REACTORS
330
570D
102
}
100
AcDbEntity
  8
0
  6
CONTINUOUS
 62
               5
100
AcDbLine
 10
187.16000000000008
 20
22.494016446212072
 30
0.0
 11
187.86000000000001
 21
22.494016446212072
 31
0.0
1001
PHOENIX7010
1002
{
1070
              62
1070
               5
1070
              41
1040
1.0
1002
}
  0
LINE
  5
56BC
102
{ACAD_REACTORS
330
570D
102
}
100
AcDbEntity
  8
0
  6
CONTINUOUS
 62
               5
100
AcDbLine
 10
187.86000000000001
 20
24.454016446212108
 30
0.0
 11
187.16000000000008
 21
24.454016446212108
 31
0.0
1001
PHOENIX7010
1002
{
1070
              62
1070
               5
1070
              41
1040
1.0
1002
}
  0
LINE
  5
56BD
102
{ACAD_REACTORS
330
570D
102
}
100
AcDbEntity
  8
0
  6
CONTINUOUS
 62
               5
100
AcDbLine
 10
187.16000000000008
 20
24.454016446212108
 30
0.0
 11
187.16000000000008
 21
23.754016446212063
 31
0.0
1001
PHOENIX7010
1002
{
1070
              62
1070
               5
1070
              41
1040
1.0
1002
}
  0
LINE
  5
56BE
102
{ACAD_REACTORS
330
570D
102
}
100
AcDbEntity
  8
0
  6
CONTINUOUS
 62
               5
100
AcDbLine
 10
187.16000000000008
 20
23.754016446212063
 30
0.0
 11
187.86000000000001
 21
23.754016446212063
 31
0.0
1001
PHOENIX7010
1002
{
1070
              62
1070
               5
1070
              41
1040
1.0
1002
}
  0
ARC
  5
56BF
102
{ACAD_REACTORS
330
570D
102
}
100
AcDbEntity
  8
0
  6
CONTINUOUS
 62
               5
100
AcDbCircle
 10
191.62400000000002
 20
23.348016446212114
 30
0.0
 40
0.7839999999999918
100
AcDbArc
 50
180.0
 51
360.0
1001
PHOENIX7010
1002
{
1070
              62
1070
               5
1070
              41
1040
1.0
1002
}
  0
ARC
  5
56C0
102
{ACAD_REACTORS
330
570D
102
}
100
AcDbEntity
  8
0
  6
CONTINUOUS
 62
               5
100
AcDbCircle
 10
191.62400000000002
 20
23.594016446212095
 30
0.0
 40
0.7839999999998213
100
AcDbArc
 50
0.0
 51
180.0
1001
PHOENIX7010
1002
{
1070
              62
1070
               5
1070
              41
1040
1.0
1002
}
  0
ARC
  5
56C1
102
{ACAD_REACTORS
330
570D
102
}
100
AcDbEntity
  8
0
  6
CONTINUOUS
 62
               5
100
AcDbCircle
 10
191.62400000000002
 20
23.348016446212114
 30
0.0
 40
1.3440000000000509
100
AcDbArc
 50
180.0
 51
360.0
1001
PHOENIX7010
1002
{
1070
              62
1070
               5
1070
              41
1040
1.0
1002
}
  0
ARC
  5
56C2
102
{ACAD_REACTORS
330
570D
102
}
100
AcDbEntity
  8
0
  6
CONTINUOUS
 62
               5
100
AcDbCircle
 10
191.62400000000002
 20
23.348016446212114
 30
0.0
 40
0.7840000000000446
100
AcDbArc
 50
174.74906568343664
 51
365.25093431656336
1001
PHOENIX7010
1002
{
1070
              62
1070
               5
1070
              41
1040
1.0
1002
}
  0
ARC
  5
56C3
102
{ACAD_REACTORS
330
570D
102
}
100
AcDbEntity
  8
0
  6
CONTINUOUS
 62
               5
100
AcDbCircle
 10
191.62400000000002
 20
23.594016446212095
 30
0.0
 40
0.783999999999813
100
AcDbArc
 50
354.74906568345023
 51
545.25093431654977
1001
PHOENIX7010
1002
{
1070
              62
1070
               5
1070
              41
1040
1.0
1002
}
  0
ARC
  5
56C4
102
{ACAD_REACTORS
330
570D
102
}
100
AcDbEntity
  8
0
  6
CONTINUOUS
 62
               5
100
AcDbCircle
 10
191.62400000000002
 20
23.348016446212114
 30
0.0
 40
0.7840000000000446
100
AcDbArc
 50
174.74906568343664
 51
365.25093431656336
1001
PHOENIX7010
1002
{
1070
              62
1070
               5
1070
              41
1040
1.0
1002
}
  0
ARC
  5
56C5
102
{ACAD_REACTORS
330
570D
102
}
100
AcDbEntity
  8
0
  6
CONTINUOUS
 62
               5
100
AcDbCircle
 10
191.62400000000002
 20
23.594016446212095
 30
0.0
 40
0.783999999999813
100
AcDbArc
 50
354.74906568345023
 51
545.25093431654977
1001
PHOENIX7010
1002
{
1070
              62
1070
               5
1070
              41
1040
1.0
1002
}
  0
LINE
  5
56C6
102
{ACAD_REACTORS
330
570D
102
}
100
AcDbEntity
  8
0
  6
CONTINUOUS
 62
               5
100
AcDbLine
 10
190.83999999999992
 20
23.348016446212114
 30
0.0
 11
190.83999999999992
 21
23.594016446212095
 31
0.0
1001
PHOENIX7010
1002
{
1070
              62
1070
               5
1070
              41
1040
1.0
1002
}
  0
LINE
  5
56C7
102
{ACAD_REACTORS
330
570D
102
}
100
AcDbEntity
  8
0
  6
CONTINUOUS
 62
               5
100
AcDbLine
 10
190.27999999999997
 20
23.348016446212114
 30
0.0
 11
190.27999999999997
 21
23.594016446212095
 31
0.0
1001
PHOENIX7010
1002
{
1070
              62
1070
               5
1070
              41
1040
1.0
1002
}
  0
ARC
  5
56C8
102
{ACAD_REACTORS
330
570D
102
}
100
AcDbEntity
  8
0
  6
CONTINUOUS
 62
               5
100
AcDbCircle
 10
188.09206329112521
 20
22.821953155076244
 30
0.0
 40
0.7535814289373105
100
AcDbArc
 50
262.98277817200892
 51
429.98408561048655
1001
PHOENIX7010
1002
{
1070
              62
1070
               5
1070
              41
1040
1.0
1002
}
  0
ARC
  5
56C9
102
{ACAD_REACTORS
330
570D
102
}
100
AcDbEntity
  8
0
  6
CONTINUOUS
 62
               5
100
AcDbCircle
 10
195.52999999999997
 20
23.964016446212099
 30
0.0
 40
0.4900000000000091
100
AcDbArc
 50
270.0
 51
450.0
1001
PHOENIX7010
1002
{
1070
              62
1070
               5
1070
              41
1040
1.0
1002
}
  0
LINE
  5
56CA
102
{ACAD_REACTORS
330
570D
102
}
100
AcDbEntity
  8
0
  6
CONTINUOUS
 62
               5
100
AcDbLine
 10
195.52999999999997
 20
23.47401644621209
 30
0.0
 11
195.03999999999996
 21
23.47401644621209
 31
0.0
1001
PHOENIX7010
1002
{
1070
              62
1070
               5
1070
              41
1040
1.0
1002
}
  0
LINE
  5
56CB
102
{ACAD_REACTORS
330
570D
102
}
100
AcDbEntity
  8
0
  6
CONTINUOUS
 62
               5
100
AcDbLine
 10
195.03999999999996
 20
23.47401644621209
 30
0.0
 11
195.03999999999996
 21
24.454016446212108
 31
0.0
1001
PHOENIX7010
1002
{
1070
              62
1070
               5
1070
              41
1040
1.0
1002
}
  0
LINE
  5
56CC
102
{ACAD_REACTORS
330
570D
102
}
100
AcDbEntity
  8
0
  6
CONTINUOUS
 62
               5
100
AcDbLine
 10
195.03999999999996
 20
24.454016446212108
 30
0.0
 11
195.52999999999997
 21
24.454016446212108
 31
0.0
1001
PHOENIX7010
1002
{
1070
              62
1070
               5
1070
              41
1040
1.0
1002
}
  0
LINE
  5
56CD
102
{ACAD_REACTORS
330
570D
102
}
100
AcDbEntity
  8
0
  6
CONTINUOUS
 62
               5
100
AcDbLine
 10
194.4799999999999
 20
22.074016446212113
 30
0.0
 11
195.03999999999996
 21
22.074016446212113
 31
0.0
1001
PHOENIX7010
1002
{
1070
              62
1070
               5
1070
              41
1040
1.0
1002
}
  0
LINE
  5
56CE
102
{ACAD_REACTORS
330
570D
102
}
100
AcDbEntity
  8
0
  6
CONTINUOUS
 62
               5
100
AcDbLine
 10
195.03999999999996
 20
22.074016446212113
 30
0.0
 11
195.03999999999996
 21
23.054016446212131
 31
0.0
1001
PHOENIX7010
1002
{
1070
              62
1070
               5
1070
              41
1040
1.0
1002
}
  0
LINE
  5
56CF
102
{ACAD_REACTORS
330
570D
102
}
100
AcDbEntity
  8
0
  6
CONTINUOUS
 62
               5
100
AcDbLine
 10
195.03999999999996
 20
23.054016446212131
 30
0.0
 11
195.66999999999985
 21
23.054016446212131
 31
0.0
1001
PHOENIX7010
1002
{
1070
              62
1070
               5
1070
              41
1040
1.0
1002
}
  0
LINE
  5
56D0
102
{ACAD_REACTORS
330
570D
102
}
100
AcDbEntity
  8
0
  6
CONTINUOUS
 62
               5
100
AcDbLine
 10
192.40799999999979
 20
23.348016446212114
 30
0.0
 11
192.40799999999979
 21
23.594016446212095
 31
0.0
1001
PHOENIX7010
1002
{
1070
              62
1070
               5
1070
              41
1040
1.0
1002
}
  0
LINE
  5
56D1
102
{ACAD_REACTORS
330
570D
102
}
100
AcDbEntity
  8
0
  6
CONTINUOUS
 62
               5
100
AcDbLine
 10
192.96799999999985
 20
23.348016446212114
 30
0.0
 11
192.96799999999985
 21
23.594016446212095
 31
0.0
1001
PHOENIX7010
1002
{
1070
              62
1070
               5
1070
              41
1040
1.0
1002
}
  0
LINE
  5
56D2
102
{ACAD_REACTORS
330
570D
102
}
100
AcDbEntity
  8
0
  6
CONTINUOUS
 62
               5
100
AcDbLine
 10
188.06960000000004
 20
24.874016446212181
 30
0.0
 11
186.59999999999991
 21
24.874016446212181
 31
0.0
1001
PHOENIX7010
1002
{
1070
              62
1070
               5
1070
              41
1040
1.0
1002
}
  0
INSERT
  5
56D3
102
{ACAD_REACTORS
330
570D
102
}
100
AcDbEntity
  8
0
  6
CONTINUOUS
 62
               5
100
AcDbBlockReference
  2
*X17
 10
-95.89469323572348
 20
-88.832478140403168
 30
0.0
1001
PHOENIX7010
1002
{
1070
              41
1040
1.0
1002
}
1001
ACAD
1000
HATCH
1002
{
1070
              19
1000
_U
1040
0.6
1040
0.7853981633974483
1070
               0
1002
}
  0
LINE
  5
56D4
102
{ACAD_REACTORS
330
570D
102
}
100
AcDbEntity
  8
0
  6
CONTINUOUS
 62
               5
100
AcDbLine
 10
188.06960000000004
 20
24.874016446212181
 30
0.0
 11
188.069598722107
 21
24.876252758984492
 31
0.0
1001
PHOENIX7010
1002
{
1070
              62
1070
               5
1070
              41
1040
1.0
1002
}
  0
LINE
  5
56D5
102
{ACAD_REACTORS
330
570D
102
}
100
AcDbEntity
  8
0
  6
CONTINUOUS
 62
               1
100
AcDbLine
 10
195.91186279161207
 20
29.705790963253207
 30
0.0
 11
193.2975130330442
 21
26.590224440306315
 31
0.0
1001
PHOENIX7010
1002
{
1070
              62
1070
               1
1070
              41
1040
1.0
1002
}
  0
LINE
  5
56D6
102
{ACAD_REACTORS
330
570D
102
}
100
AcDbEntity
  8
0
  6
CONTINUOUS
 62
               1
100
AcDbLine
 10
193.2975130330442
 20
26.590224440306315
 30
0.0
 11
193.20000000000005
 21
26.47401644621209
 31
0.0
1001
PHOENIX7010
1002
{
1070
              62
1070
               1
1070
              41
1040
1.0
1002
}
  0
LINE
  5
56D7
102
{ACAD_REACTORS
330
570D
102
}
100
AcDbEntity
  8
0
  6
CONTINUOUS
 62
               5
100
AcDbLine
 10
195.66999999999985
 20
24.874016446212181
 30
0.0
 11
194.4799999999999
 21
24.874016446212181
 31
0.0
1001
PHOENIX7010
1002
{
1070
              62
1070
               5
1070
              41
1040
1.0
1002
}
  0
INSERT
  5
56D8
102
{ACAD_REACTORS
330
570D
102
}
100
AcDbEntity
  8
0
  6
CONTINUOUS
 62
               1
100
AcDbBlockReference
  2
*X15
 10
-95.89469323572348
 20
-88.832478140403168
 30
0.0
1001
PHOENIX7010
1002
{
1070
              41
1040
1.0
1002
}
1001
ACAD
1000
HATCH
1002
{
1070
              19
1000
_U
1040
0.25
1040
0.7853981633974483
1070
               0
1000
ASC_BOUNDS
1070
               1
1070
               2
1070
              14
1005
0
1005
0
1005
0
1005
0
1005
0
1005
0
1005
0
1005
0
1005
0
1005
0
1005
0
1005
0
1005
0
1005
0
1000
ASC_SEEDPOINT
1011
-7000.0
1021
-7000.0
1031
0.0
1002
}
  0
INSERT
  5
56D9
102
{ACAD_REACTORS
330
570D
102
}
100
AcDbEntity
  8
0
  6
CONTINUOUS
 62
               1
100
AcDbBlockReference
  2
*X14
 10
-95.89469323572348
 20
-88.832478140403168
 30
0.0
1001
PHOENIX7010
1002
{
1070
              41
1040
1.0
1002
}
1001
ACAD
1000
HATCH
1002
{
1070
              19
1000
_U
1040
0.25
1040
0.7853981633974483
1070
               0
1000
ASC_BOUNDS
1070
               1
1070
               2
1070
               6
1005
0
1005
0
1005
0
1005
0
1005
0
1005
0
1000
ASC_SEEDPOINT
1011
-7000.0
1021
-7000.0
1031
0.0
1002
}
  0
LINE
  5
56DA
102
{ACAD_REACTORS
330
570D
102
}
100
AcDbEntity
  8
0
  6
CONTINUOUS
 62
               5
100
AcDbLine
 10
203.0
 20
22.074016446212113
 30
0.0
 11
202.01999999999987
 21
24.874016446212181
 31
0.0
1001
PHOENIX7010
1002
{
1070
              62
1070
               5
1070
              41
1040
1.0
1002
}
  0
LINE
  5
56DB
102
{ACAD_REACTORS
330
570D
102
}
100
AcDbEntity
  8
0
  6
CONTINUOUS
 62
               5
100
AcDbLine
 10
200.4799999999999
 20
22.074016446212113
 30
0.0
 11
201.45999999999981
 21
24.874016446212181
 31
0.0
1001
PHOENIX7010
1002
{
1070
              62
1070
               5
1070
              41
1040
1.0
1002
}
  0
LINE
  5
56DC
102
{ACAD_REACTORS
330
570D
102
}
100
AcDbEntity
  8
0
  6
CONTINUOUS
 62
               5
100
AcDbLine
 10
198.43999999999994
 20
22.494016446212072
 30
0.0
 11
198.43999999999994
 21
24.874016446212181
 31
0.0
1001
PHOENIX7010
1002
{
1070
              62
1070
               5
1070
              41
1040
1.0
1002
}
  0
LINE
  5
56DD
102
{ACAD_REACTORS
330
570D
102
}
100
AcDbEntity
  8
0
  6
CONTINUOUS
 62
               5
100
AcDbLine
 10
197.87999999999988
 20
24.874016446212181
 30
0.0
 11
197.87999999999988
 21
22.074016446212113
 31
0.0
1001
PHOENIX7010
1002
{
1070
              62
1070
               5
1070
              41
1040
1.0
1002
}
  0
LINE
  5
56DE
102
{ACAD_REACTORS
330
570D
102
}
100
AcDbEntity
  8
0
  6
CONTINUOUS
 62
               5
100
AcDbLine
 10
199.4799999999999
 20
22.074016446212113
 30
0.0
 11
199.4799999999999
 21
22.494016446212072
 31
0.0
1001
PHOENIX7010
1002
{
1070
              62
1070
               5
1070
              41
1040
1.0
1002
}
  0
LINE
  5
56DF
102
{ACAD_REACTORS
330
570D
102
}
100
AcDbEntity
  8
0
  6
CONTINUOUS
 62
               5
100
AcDbLine
 10
199.4799999999999
 20
22.494016446212072
 30
0.0
 11
198.43999999999994
 21
22.494016446212072
 31
0.0
1001
PHOENIX7010
1002
{
1070
              62
1070
               5
1070
              41
1040
1.0
1002
}
  0
LINE
  5
56E0
102
{ACAD_REACTORS
330
570D
102
}
100
AcDbEntity
  8
0
  6
CONTINUOUS
 62
               5
100
AcDbLine
 10
197.87999999999988
 20
22.074016446212113
 30
0.0
 11
199.4799999999999
 21
22.074016446212113
 31
0.0
1001
PHOENIX7010
1002
{
1070
              62
1070
               5
1070
              41
1040
1.0
1002
}
  0
LINE
  5
56E1
102
{ACAD_REACTORS
330
570D
102
}
100
AcDbEntity
  8
0
  6
CONTINUOUS
 62
               5
100
AcDbLine
 10
203.0
 20
22.074016446212113
 30
0.0
 11
202.43999999999994
 21
22.074016446212113
 31
0.0
1001
PHOENIX7010
1002
{
1070
              62
1070
               5
1070
              41
1040
1.0
1002
}
  0
LINE
  5
56E2
102
{ACAD_REACTORS
330
570D
102
}
100
AcDbEntity
  8
0
  6
CONTINUOUS
 62
               5
100
AcDbLine
 10
202.43999999999994
 20
22.074016446212113
 30
0.0
 11
202.27199999999993
 21
22.634016446212172
 31
0.0
1001
PHOENIX7010
1002
{
1070
              62
1070
               5
1070
              41
1040
1.0
1002
}
  0
LINE
  5
56E3
102
{ACAD_REACTORS
330
570D
102
}
100
AcDbEntity
  8
0
  6
CONTINUOUS
 62
               5
100
AcDbLine
 10
201.74000000000001
 20
22.634016446212172
 30
0.0
 11
202.27199999999993
 21
22.634016446212172
 31
0.0
1001
PHOENIX7010
1002
{
1070
              62
1070
               5
1070
              41
1040
1.0
1002
}
  0
LINE
  5
56E4
102
{ACAD_REACTORS
330
570D
102
}
100
AcDbEntity
  8
0
  6
CONTINUOUS
 62
               5
100
AcDbLine
 10
201.74000000000001
 20
23.054016446212131
 30
0.0
 11
202.13199999999995
 21
23.054016446212131
 31
0.0
1001
PHOENIX7010
1002
{
1070
              62
1070
               5
1070
              41
1040
1.0
1002
}
  0
LINE
  5
56E5
102
{ACAD_REACTORS
330
570D
102
}
100
AcDbEntity
  8
0
  6
CONTINUOUS
 62
               5
100
AcDbLine
 10
201.74000000000001
 20
24.314016446212122
 30
0.0
 11
202.13199999999995
 21
23.054016446212131
 31
0.0
1001
PHOENIX7010
1002
{
1070
              62
1070
               5
1070
              41
1040
1.0
1002
}
  0
LINE
  5
56E6
102
{ACAD_REACTORS
330
570D
102
}
100
AcDbEntity
  8
0
  6
CONTINUOUS
 62
               5
100
AcDbLine
 10
201.74000000000001
 20
24.314016446212122
 30
0.0
 11
201.34799999999996
 21
23.054016446212131
 31
0.0
1001
PHOENIX7010
1002
{
1070
              62
1070
               5
1070
              41
1040
1.0
1002
}
  0
LINE
  5
56E7
102
{ACAD_REACTORS
330
570D
102
}
100
AcDbEntity
  8
0
  6
CONTINUOUS
 62
               5
100
AcDbLine
 10
201.74000000000001
 20
23.054016446212131
 30
0.0
 11
201.34799999999996
 21
23.054016446212131
 31
0.0
1001
PHOENIX7010
1002
{
1070
              62
1070
               5
1070
              41
1040
1.0
1002
}
  0
LINE
  5
56E8
102
{ACAD_REACTORS
330
570D
102
}
100
AcDbEntity
  8
0
  6
CONTINUOUS
 62
               5
100
AcDbLine
 10
201.74000000000001
 20
22.634016446212172
 30
0.0
 11
201.20799999999997
 21
22.634016446212172
 31
0.0
1001
PHOENIX7010
1002
{
1070
              62
1070
               5
1070
              41
1040
1.0
1002
}
  0
LINE
  5
56E9
102
{ACAD_REACTORS
330
570D
102
}
100
AcDbEntity
  8
0
  6
CONTINUOUS
 62
               5
100
AcDbLine
 10
201.03999999999996
 20
22.074016446212113
 30
0.0
 11
201.20799999999997
 21
22.634016446212172
 31
0.0
1001
PHOENIX7010
1002
{
1070
              62
1070
               5
1070
              41
1040
1.0
1002
}
  0
LINE
  5
56EA
102
{ACAD_REACTORS
330
570D
102
}
100
AcDbEntity
  8
0
  6
CONTINUOUS
 62
               5
100
AcDbLine
 10
200.4799999999999
 20
22.074016446212113
 30
0.0
 11
201.03999999999996
 21
22.074016446212113
 31
0.0
1001
PHOENIX7010
1002
{
1070
              62
1070
               5
1070
              41
1040
1.0
1002
}
  0
LINE
  5
56EB
102
{ACAD_REACTORS
330
570D
102
}
100
AcDbEntity
  8
0
  6
CONTINUOUS
 62
               1
100
AcDbLine
 10
202.88959999999986
 20
32.742421719825984
 30
0.0
 11
198.57039999999995
 21
27.594016446212095
 31
0.0
1001
PHOENIX7010
1002
{
1070
              62
1070
               1
1070
              41
1040
1.0
1002
}
  0
LINE
  5
56EC
102
{ACAD_REACTORS
330
570D
102
}
100
AcDbEntity
  8
0
  6
CONTINUOUS
 62
               1
100
AcDbLine
 10
198.57039999999995
 20
27.594016446212095
 30
0.0
 11
198.57039999999995
 21
32.874016446212181
 31
0.0
1001
PHOENIX7010
1002
{
1070
              62
1070
               1
1070
              41
1040
1.0
1002
}
  0
LINE
  5
56ED
102
{ACAD_REACTORS
330
570D
102
}
100
AcDbEntity
  8
0
  6
CONTINUOUS
 62
               5
100
AcDbLine
 10
198.43999999999994
 20
24.874016446212181
 30
0.0
 11
197.87999999999988
 21
24.874016446212181
 31
0.0
1001
PHOENIX7010
1002
{
1070
              62
1070
               5
1070
              41
1040
1.0
1002
}
  0
LINE
  5
56EE
102
{ACAD_REACTORS
330
570D
102
}
100
AcDbEntity
  8
0
  6
CONTINUOUS
 62
               1
100
AcDbLine
 10
203.0
 20
26.47401644621209
 30
0.0
 11
203.0
 21
32.874016446212181
 31
0.0
1001
PHOENIX7010
1002
{
1070
              62
1070
               1
1070
              41
1040
1.0
1002
}
  0
LINE
  5
56EF
102
{ACAD_REACTORS
330
570D
102
}
100
AcDbEntity
  8
0
  6
CONTINUOUS
 62
               5
100
AcDbLine
 10
201.74000000000001
 20
24.874016446212181
 30
0.0
 11
202.01999999999987
 21
24.874016446212181
 31
0.0
1001
PHOENIX7010
1002
{
1070
              62
1070
               5
1070
              41
1040
1.0
1002
}
  0
LINE
  5
56F0
102
{ACAD_REACTORS
330
570D
102
}
100
AcDbEntity
  8
0
  6
CONTINUOUS
 62
               5
100
AcDbLine
 10
201.74000000000001
 20
24.874016446212181
 30
0.0
 11
201.45999999999981
 21
24.874016446212181
 31
0.0
1001
PHOENIX7010
1002
{
1070
              62
1070
               5
1070
              41
1040
1.0
1002
}
  0
LINE
  5
56F1
102
{ACAD_REACTORS
330
570D
102
}
100
AcDbEntity
  8
0
  6
CONTINUOUS
 62
               1
100
AcDbLine
 10
203.0
 20
32.874016446212181
 30
0.0
 11
202.88959999999986
 21
32.742421719825984
 31
0.0
1001
PHOENIX7010
1002
{
1070
              62
1070
               1
1070
              41
1040
1.0
1002
}
  0
ENDSEC
  0
SECTION
  2
OBJECTS
  0
DICTIONARY
  5
C
100
AcDbDictionary
  3
ACAD_COLOR
350
56FD
  3
ACAD_GROUP
350
D
  3
ACAD_MATERIAL
350
56FC
  3
ACAD_MLINESTYLE
350
E
  3
ACASAPPOBJECT
350
D4
  3
ACASGREF_MASTER
350
84
  3
ACCELVIEW
350
DA
  3
ACDBVARIABLEDICTIONARY
350
576D
  3
ACDMSYSVARMGR
350
A0
  3
ACGREF_MASTER
350
82
  3
ACME_COMMAND_HISTORY
350
80
  3
ACME_SCOPE_NAME
350
7F
  3
AD_APPL
350
93
  3
AD_DRAWMGR_NAME
350
B4
  3
AD_GREF_MODULE
350
9B
  3
AD_HOLENOTE_REPOSITORY
350
9A
  3
ADSYSVARMGR
350
89
  3
AMI_MASTER
350
83
  3
AUTOCAD_ASSEMBLIES_PROJECT
350
C0
  3
DESIGNER_ASSEMBLIES_SYSVARS
350
BB
  3
PH_OBJREACTOR_DICT
350
3C
  3
PH_ROOTGROUP_DICT
350
3B
  3
PH_VARS
350
31
  0
DICTIONARY
  5
D
102
{ACAD_REACTORS
330
C
102
}
100
AcDbDictionary
  3
*A1
350
1110
  3
*A2
350
305C
  3
*A3
350
305D
  3
*A4
350
305E
  3
*A5
350
305F
  3
*A6
350
3060
  3
*A7
350
3061
  3
*A8
350
4DF8
  3
PH_BOUNDARYLIST
350
3D
  0
DICTIONARY
  5
E
102
{ACAD_REACTORS
330
C
102
}
100
AcDbDictionary
  3
STANDARD
350
13
  0
MLINESTYLE
  5
13
102
{ACAD_REACTORS
330
E
102
}
100
AcDbMlineStyle
  2
STANDARD
 70
               0
  3

 62
               0
 51
90.0
 52
90.0
 71
               2
 49
0.5
 62
             256
  6
BYLAYER
 49
-0.5
 62
             256
  6
BYLAYER
  0
ACAD_PROXY_OBJECT
  5
31
102
{ACAD_REACTORS
330
C
102
}
330
C
100
AcDbProxyObject
 90
      499
 91
      500
 93
      406
310
0364064060000000000003C2FC000000000000F0BF6901406405019029035F626C9AAAAA901405014050100000000000005100
330
48
330
4A
330
0
330
0
 94
        0
  0
DICTIONARY
  5
3B
102
{ACAD_REACTORS
330
C
102
}
100
AcDbDictionary
  3
$PH$AAAC4V
350
9D5
  3
$PH$AAAG
350
C17
  3
$PH$AAAXSK_E
350
37DE
  3
$PH$AABAPF4
350
3DBC
  3
$PH$AABB
350
3E11
  3
$PH$AABE
350
56F6
  0
DICTIONARY
  5
3C
102
{ACAD_REACTORS
330
C
102
}
100
AcDbDictionary
  3
*A1
350
C10
  3
*A10
350
C14
  3
*A2
350
C15
  3
*A3
350
457B
  3
*A4
350
457C
  3
*A5
350
457D
  3
*A6
350
4DBC
  3
*A7
350
4DBD
  3
*A8
350
C0F
  3
*A9
350
C13
  0
GROUP
  5
3D
102
{ACAD_REACTORS
330
D
102
}
100
AcDbGroup
300

 70
               0
 71
               0
340
2B1C
340
2B28
340
2B33
340
2B3D
340
2B47
340
2B51
340
2B5B
340
2B65
  0
ACAD_PROXY_OBJECT
  5
7F
102
{ACAD_REACTORS
330
C
102
}
330
C
100
AcDbProxyObject
 90
      499
 91
      501
 93
      464
310
01010040932000000000000000000000000000000000000000000000000000000000000000000000000000000000000000000000000000090100
360
85
360
86
360
87
360
88
360
8A
360
8B
360
8C
360
8D
360
8E
360
8F
360
90
360
91
360
92
360
95
360
96
360
97
360
98
360
99
360
9C
360
9D
360
9E
360
9F
360
A1
360
A2
360
A3
360
A4
360
A5
360
A6
360
A7
360
A9
360
AA
360
AB
360
AC
360
AD
360
AE
360
AF
360
B0
360
B1
360
B2
360
B3
360
BC
360
BD
360
BE
360
BF
360
C6
360
C7
360
C8
360
C9
360
CA
360
CE
330
0
 94
        0
1001
ACAD
1000
AcRTDxfName
1000
ACMESCOPE
  0
ACAD_PROXY_OBJECT
  5
80
102
{ACAD_REACTORS
330
C
102
}
330
C
100
AcDbProxyObject
 90
      499
 91
      502
 93
     1726
310
4280508554E444546494E4580508554E444546494E458050C41445F434F4E56455254523140805084E202D20554E444F014213880B4815539113C050C414D4C54595045434845434B41405084E202D20554E444F014313880B481312539155165411405094E202D204C41594552014313880B481312539155165411405084E
310
202D20554E444F01431053531516541150D21150D2D03014213880B4815539113C05094E202D204C41594552014213880B4815539113C0504554E444F80504554E444F80504554E444F80504554E444F805065341564541538
 94
        0
1001
ACAD
1000
AcRTDxfName
1000
ACMECOMMANDHISTORY
  0
ACAD_PROXY_OBJECT
  5
82
102
{ACAD_REACTORS
330
C
102
}
330
C
100
AcDbProxyObject
 90
      499
 91
      504
 93
      114
310
010100410000000000000000000000
 94
        0
1001
ACAD
1000
AcRTDxfName
1000
ACGREFMASTER
  0
ACAD_PROXY_OBJECT
  5
83
102
{ACAD_REACTORS
330
C
102
}
330
C
100
AcDbProxyObject
 90
      499
 91
      505
 93
       34
310
0100004040
 94
        0
1001
ACAD
1000
AcRTDxfName
1000
AmiMaster
  0
ACAD_PROXY_OBJECT
  5
84
102
{ACAD_REACTORS
330
C
102
}
330
C
100
AcDbProxyObject
 90
      499
 91
      506
 93
       34
310
0100004040
 94
        0
1001
ACAD
1000
AcRTDxfName
1000
ACASGREFMASTER
  0
ACAD_PROXY_OBJECT
  5
85
330
0
100
AcDbProxyObject
 90
      499
 91
      507
 93
      354
310
000000000000405AA6A9AA40504646174650142118B8C4B8C8C8CD9C0504646174650142118B8C4B8C8C8CD9C0
330
7F
330
86
330
87
330
89
330
0
330
0
 94
        0
1001
ACAD
1000
AcRTDxfName
1000
ADAPPL
  0
ACAD_PROXY_OBJECT
  5
86
330
0
100
AcDbProxyObject
 90
      499
 91
      508
 93
      120
310
00009024410100000092080002A6A6
330
7F
330
96
330
95
330
0
 94
        0
1001
ACAD
1000
AcRTDxfName
1000
DEPMGR
  0
ACAD_PROXY_OBJECT
  5
87
330
0
100
AcDbProxyObject
 90
      499
 91
      509
 93
       46
310
000000009208
330
7F
330
0
330
88
 94
        0
1001
ACAD
1000
AcRTDxfName
1000
PARAMMGR
  0
ACAD_PROXY_OBJECT
  5
88
330
0
100
AcDbProxyObject
 90
      499
 91
      510
 93
       22
310
0000A8
330
7F
 94
        0
1001
ACAD
1000
AcRTDxfName
1000
PARAMSCOPE
  0
ACAD_PROXY_OBJECT
  5
89
102
{ACAD_REACTORS
330
C
102
}
330
C
100
AcDbProxyObject
 90
      499
 91
      511
 93
      104
310
90944101000000000000000000
330
8A
330
8B
330
8C
330
8D
330
8E
330
8F
330
90
330
91
330
92
 94
        0
1001
ACAD
1000
AcRTDxfName
1000
"IM_SYSVAR_MAN"
  0
ACAD_PROXY_OBJECT
  5
8A
330
0
100
AcDbProxyObject
 90
      499
 91
      512
 93
      124
310
00000142905350D3D39114D414D69050
330
7F
 94
        0
1001
ACAD
1000
AcRTDxfName
1000
SYSTEM_VAR_INT
  0
ACAD_PROXY_OBJECT
  5
8B
330
0
100
AcDbProxyObject
 90
      499
 91
      512
 93
      124
310
000001429053549553115353D1115010
330
7F
 94
        0
1001
ACAD
1000
AcRTDxfName
1000
SYSTEM_VAR_INT
  0
ACAD_PROXY_OBJECT
  5
8C
330
0
100
AcDbProxyObject
 90
      499
 91
      512
 93
      108
310
00000142105354D2D353D1115010
330
7F
 94
        0
1001
ACAD
1000
AcRTDxfName
1000
SYSTEM_VAR_INT
  0
ACAD_PROXY_OBJECT
  5
8D
330
0
100
AcDbProxyObject
 90
      499
 91
      512
 93
      140
310
000001435053511253511254D41353D11160
330
7F
 94
        0
1001
ACAD
1000
AcRTDxfName
1000
SYSTEM_VAR_INT
  0
ACAD_PROXY_OBJECT
  5
8E
330
0
100
AcDbProxyObject
 90
      499
 91
      513
 93
      180
310
00000142905354D2D05391D513D3000000000000010400
330
7F
 94
        0
1001
ACAD
1000
AcRTDxfName
1000
SYSTEM_VAR_REAL
  0
ACAD_PROXY_OBJECT
  5
8F
330
0
100
AcDbProxyObject
 90
      499
 91
      514
 93
      164
310
00000142505354D2D4D516531140505434F4E542A0
330
7F
 94
        0
1001
ACAD
1000
AcRTDxfName
1000
SYSTEM_VAR_STR
  0
ACAD_PROXY_OBJECT
  5
90
330
0
100
AcDbProxyObject
 90
      499
 91
      512
 93
      108
310
00000142105350D3511112535010
330
7F
 94
        0
1001
ACAD
1000
AcRTDxfName
1000
SYSTEM_VAR_INT
  0
ACAD_PROXY_OBJECT
  5
91
330
0
100
AcDbProxyObject
 90
      499
 91
      514
 93
      116
310
000001425053541054919253114060
330
7F
 94
        0
1001
ACAD
1000
AcRTDxfName
1000
SYSTEM_VAR_STR
  0
ACAD_PROXY_OBJECT
  5
92
330
0
100
AcDbProxyObject
 90
      499
 91
      512
 93
      100
310
00000142105350D3D35414D5A0
330
7F
 94
        0
1001
ACAD
1000
AcRTDxfName
1000
SYSTEM_VAR_INT
  0
ACAD_PROXY_OBJECT
  5
93
102
{ACAD_REACTORS
330
C
102
}
330
C
100
AcDbProxyObject
 90
      499
 91
      515
 93
       42
310
000102004500
330
85
 94
        0
1001
ACAD
1000
AcRTDxfName
1000
NAMEDAPPL
  0
ACAD_PROXY_OBJECT
  5
95
330
0
100
AcDbProxyObject
 90
      499
 91
      517
 93
      164
310
000092090148200A00000440000FFFFFFFF0000000
330
7F
330
96
330
86
330
0
 94
        0
1001
ACAD
1000
AcRTDxfName
1000
ADBASE
  0
ACAD_PROXY_OBJECT
  5
96
330
0
100
AcDbProxyObject
 90
      499
 91
      518
 93
       82
310
000040520802482A800000
330
7F
330
95
330
86
330
0
 94
        0
1001
ACAD
1000
AcRTDxfName
1000
BODYID
  0
ACAD_PROXY_OBJECT
  5
97
330
0
100
AcDbProxyObject
 90
      499
 91
      510
 93
       22
310
0000A8
330
7F
 94
        0
1001
ACAD
1000
AcRTDxfName
1000
PARAMSCOPE
  0
ACAD_PROXY_OBJECT
  5
98
330
0
100
AcDbProxyObject
 90
      499
 91
      519
 93
       38
310
0000009208
330
7F
330
0
 94
        0
1001
ACAD
1000
AcRTDxfName
1000
WORKPLANEDISPLAYMGR
  0
ACAD_PROXY_OBJECT
  5
99
330
0
100
AcDbProxyObject
 90
      499
 91
      520
 93
     3204
310
0000419208050A44555243485F424F4852014254D050D2D7D093D2148050C44555243485F5A594C494E440142D4D050D2D7D696531253910050B44555243485F4B4547454C014294D050D2D7D2D151D15310648201451EC94958C8094950535112504811155490D20B9F4051D7B252563202525414D4449412058202525414
310
D4445502054494546457D014F5EC94958C8094950535112504811155490D20B9F57141ED6965312539108094958C80949505350D112504816080949505350D09111540815125151915F405467B252563202525414D4449412058202525414D4445502054494546457D5C507B5A594C494E4420252563202525414D43444941
310
2058202525414D43424445502054494546457D014E5EC94958C8094950535112504811155490D20B9F57141ED2D151D15308094958C80949505350D112504816080949505350D4D05391C949591F405427B252563202525414D4449412058202525414D4445502054494546457D5C507B4B4547454C20252563202525414D4
310
34449412058202525414D4353414E472525647D0
330
7F
 94
        0
1001
ACAD
1000
AcRTDxfName
1000
ADHNTMPLT
  0
ACAD_PROXY_OBJECT
  5
9A
102
{ACAD_REACTORS
330
C
102
}
330
C
100
AcDbProxyObject
 90
      499
 91
      521
 93
        8
310
00
330
99
 94
        0
1001
ACAD
1000
AcRTDxfName
1000
AM_HNTEMPLATE_MGR_NAME
  0
ACAD_PROXY_OBJECT
  5
9B
102
{ACAD_REACTORS
330
C
102
}
330
C
100
AcDbProxyObject
 90
      499
 91
      522
 93
      114
310
000000428000000000000000000000
 94
        0
1001
ACAD
1000
AcRTDxfName
1000
AcAdGrefModule
  0
ACAD_PROXY_OBJECT
  5
9C
330
0
100
AcDbProxyObject
 90
      499
 91
      523
 93
      332
310
0000014119185D1940508442E312E32323362014119185D1940508442E312E3232336240501000000000
330
7F
330
9D
330
9F
330
A0
330
0
 94
        0
1001
ACAD
1000
AcRTDxfName
1000
AM_DRAWING_MGR
  0
ACAD_PROXY_OBJECT
  5
9D
330
0
100
AcDbProxyObject
 90
      499
 91
      524
 93
       56
310
00009014410100
330
7F
330
9E
 94
        0
1001
ACAD
1000
AcRTDxfName
1000
AM_DWG_DOCUMENT
  0
ACAD_PROXY_OBJECT
  5
9E
330
0
100
AcDbProxyObject
 90
      499
 91
      525
 93
       40
310
0000A44101
330
7F
 94
        0
1001
ACAD
1000
AcRTDxfName
1000
AM_DWG_SHEET
  0
ACAD_PROXY_OBJECT
  5
9F
330
0
100
AcDbProxyObject
 90
      499
 91
      526
 93
       68
310
0000A44101920A4820
330
7F
 94
        0
1001
ACAD
1000
AcRTDxfName
1000
AM_VIEWDIMPARMAP
  0
ACAD_PROXY_OBJECT
  5
A0
102
{ACAD_REACTORS
330
C
102
}
330
C
100
AcDbProxyObject
 90
      499
 91
      511
 93
      184
310
4C51248101000000000000000000000000000000000000
330
A1
330
A2
330
A3
330
A4
330
A5
330
A6
330
A7
330
A9
330
AA
330
AB
330
AC
330
AD
330
AE
330
AF
330
B0
330
B1
330
B2
330
B3
 94
        0
1001
ACAD
1000
AcRTDxfName
1000
"IM_SYSVAR_MAN"
  0
ACAD_PROXY_OBJECT
  5
A1
330
0
100
AcDbProxyObject
 90
      499
 91
      512
 93
      108
310
000001421053521310D05310D010
330
7F
 94
        0
1001
ACAD
1000
AcRTDxfName
1000
SYSTEM_VAR_INT
  0
ACAD_PROXY_OBJECT
  5
A2
330
0
100
AcDbProxyObject
 90
      499
 91
      512
 93
      124
310
000001429053541493D2951654115010
330
7F
 94
        0
1001
ACAD
1000
AcRTDxfName
1000
SYSTEM_VAR_INT
  0
ACAD_PROXY_OBJECT
  5
A3
330
0
100
AcDbProxyObject
 90
      499
 91
      512
 93
      124
310
00000142905354915554D15112535010
330
7F
 94
        0
1001
ACAD
1000
AcRTDxfName
1000
SYSTEM_VAR_INT
  0
ACAD_PROXY_OBJECT
  5
A4
330
0
100
AcDbProxyObject
 90
      499
 91
      512
 93
      132
310
00000143105354D150D51253D391125360
330
7F
 94
        0
1001
ACAD
1000
AcRTDxfName
1000
SYSTEM_VAR_INT
  0
ACAD_PROXY_OBJECT
  5
A5
330
0
100
AcDbProxyObject
 90
      499
 91
      512
 93
      124
310
00000142905355941093D49111549010
330
7F
 94
        0
1001
ACAD
1000
AcRTDxfName
1000
SYSTEM_VAR_INT
  0
ACAD_PROXY_OBJECT
  5
A6
330
0
100
AcDbProxyObject
 90
      499
 91
      512
 93
      116
310
0000014290535115D1D0D3D313D4A0
330
7F
 94
        0
1001
ACAD
1000
AcRTDxfName
1000
SYSTEM_VAR_INT
  0
ACAD_PROXY_OBJECT
  5
A7
330
0
100
AcDbProxyObject
 90
      499
 91
      514
 93
      196
310
0000014290535212511315165411405085645524445434B540
330
7F
 94
        0
1001
ACAD
1000
AcRTDxfName
1000
SYSTEM_VAR_STR
  0
ACAD_PROXY_OBJECT
  5
A9
330
0
100
AcDbProxyObject
 90
      499
 91
      514
 93
      196
310
00000142905354D150D315165411405085048414E544F4D320
330
7F
 94
        0
1001
ACAD
1000
AcRTDxfName
1000
SYSTEM_VAR_STR
  0
ACAD_PROXY_OBJECT
  5
AA
330
0
100
AcDbProxyObject
 90
      499
 91
      512
 93
      108
310
00000142105354D51114D0D51020
330
7F
 94
        0
1001
ACAD
1000
AcRTDxfName
1000
SYSTEM_VAR_INT
  0
ACAD_PROXY_OBJECT
  5
AB
330
0
100
AcDbProxyObject
 90
      499
 91
      512
 93
      108
310
00000142105354D5111510541020
330
7F
 94
        0
1001
ACAD
1000
AcRTDxfName
1000
SYSTEM_VAR_INT
  0
ACAD_PROXY_OBJECT
  5
AC
330
0
100
AcDbProxyObject
 90
      499
 91
      512
 93
      108
310
00000142105354D5111115131020
330
7F
 94
        0
1001
ACAD
1000
AcRTDxfName
1000
SYSTEM_VAR_INT
  0
ACAD_PROXY_OBJECT
  5
AD
330
0
100
AcDbProxyObject
 90
      499
 91
      513
 93
      148
310
00000141905350D310D34295C8FC2F528BC3F0
330
7F
 94
        0
1001
ACAD
1000
AcRTDxfName
1000
SYSTEM_VAR_REAL
  0
ACAD_PROXY_OBJECT
  5
AE
330
0
100
AcDbProxyObject
 90
      499
 91
      513
 93
      156
310
00000141D05350D311D05402B8716D9CEF7C33F0
330
7F
 94
        0
1001
ACAD
1000
AcRTDxfName
1000
SYSTEM_VAR_REAL
  0
ACAD_PROXY_OBJECT
  5
AF
330
0
100
AcDbProxyObject
 90
      499
 91
      513
 93
      164
310
00000142105350D313D4D2150295C8FC2F528BC3F0
330
7F
 94
        0
1001
ACAD
1000
AcRTDxfName
1000
SYSTEM_VAR_REAL
  0
ACAD_PROXY_OBJECT
  5
B0
330
0
100
AcDbProxyObject
 90
      499
 91
      512
 93
      100
310
00000141D05350D31410549010
330
7F
 94
        0
1001
ACAD
1000
AcRTDxfName
1000
SYSTEM_VAR_INT
  0
ACAD_PROXY_OBJECT
  5
B1
330
0
100
AcDbProxyObject
 90
      499
 91
      512
 93
      100
310
0000014210535590539254D220
330
7F
 94
        0
1001
ACAD
1000
AcRTDxfName
1000
SYSTEM_VAR_INT
  0
ACAD_PROXY_OBJECT
  5
B2
330
0
100
AcDbProxyObject
 90
      499
 91
      513
 93
      188
310
00000142D0535312539155121250D2C295C8FC2F5289C3F0
330
7F
 94
        0
1001
ACAD
1000
AcRTDxfName
1000
SYSTEM_VAR_REAL
  0
ACAD_PROXY_OBJECT
  5
B3
330
0
100
AcDbProxyObject
 90
      499
 91
      514
 93
      156
310
00000142105350D315165411405054D495454450
330
7F
 94
        0
1001
ACAD
1000
AcRTDxfName
1000
SYSTEM_VAR_STR
  0
ACAD_PROXY_OBJECT
  5
B4
102
{ACAD_REACTORS
330
C
102
}
330
C
100
AcDbProxyObject
 90
      499
 91
      527
 93
       42
310
000100004500
330
9C
 94
        0
1001
ACAD
1000
AcRTDxfName
1000
AM_DWGMGR_NAME
  0
ACAD_PROXY_OBJECT
  5
BB
102
{ACAD_REACTORS
330
C
102
}
330
C
100
AcDbProxyObject
 90
      499
 91
      511
 93
       64
310
9044410100000000
330
BC
330
BD
330
BE
330
BF
 94
        0
1001
ACAD
1000
AcRTDxfName
1000
"IM_SYSVAR_MAN"
  0
ACAD_PROXY_OBJECT
  5
BC
330
0
100
AcDbProxyObject
 90
      499
 91
      512
 93
      132
310
00000142D05050555513D4D3D315915010
330
7F
 94
        0
1001
ACAD
1000
AcRTDxfName
1000
SYSTEM_VAR_INT
  0
ACAD_PROXY_OBJECT
  5
BD
330
0
100
AcDbProxyObject
 90
      499
 91
      512
 93
      156
310
00000143905050555513D054D4D1535093115010
330
7F
 94
        0
1001
ACAD
1000
AcRTDxfName
1000
SYSTEM_VAR_INT
  0
ACAD_PROXY_OBJECT
  5
BE
330
0
100
AcDbProxyObject
 90
      499
 91
      512
 93
      148
310
00000143505055925155D49154D513D4915010
330
7F
 94
        0
1001
ACAD
1000
AcRTDxfName
1000
SYSTEM_VAR_INT
  0
ACAD_PROXY_OBJECT
  5
BF
330
0
100
AcDbProxyObject
 90
      499
 91
      512
 93
      124
310
00000142D050525394D15495105094E0
330
7F
 94
        0
1001
ACAD
1000
AcRTDxfName
1000
SYSTEM_VAR_INT
  0
ACAD_PROXY_OBJECT
  5
C0
102
{ACAD_REACTORS
330
C
102
}
330
C
100
AcDbProxyObject
 90
      499
 91
      528
 93
       58
310
0102004200000000
330
C8
330
CE
330
C9
 94
        0
1001
ACAD
1000
AcRTDxfName
1000
ACAMPROJECT
  0
ACAD_PROXY_OBJECT
  5
C6
330
0
100
AcDbProxyObject
 90
      499
 91
      531
 93
       32
310
00000000
330
7F
340
C3
330
C7
330
C3
 94
        0
1001
ACAD
1000
AcRTDxfName
1000
ACAMGRCOMPDEF
  0
ACAD_PROXY_OBJECT
  5
C7
330
0
100
AcDbProxyObject
 90
      499
 91
      532
 93
      143
310
0000014213905351539313D4D0400522080C
330
7F
330
C6
 94
        0
1001
ACAD
1000
AcRTDxfName
1000
ACAMCOMPDEF
  0
ACAD_PROXY_OBJECT
  5
C8
330
0
100
AcDbProxyObject
 90
      499
 91
      533
 93
       72
310
000000A44101A44101
330
7F
330
C7
 94
        0
1001
ACAD
1000
AcRTDxfName
1000
ACAMCOMPDEFMGR
  0
ACAD_PROXY_OBJECT
  5
C9
330
0
100
AcDbProxyObject
 90
      499
 91
      534
 93
       80
310
00009014410100000000
330
7F
330
CA
330
CA
330
CA
330
CA
 94
        0
1001
ACAD
1000
AcRTDxfName
1000
AMCONTEXTMGR
  0
ACAD_PROXY_OBJECT
  5
CA
330
0
100
AcDbProxyObject
 90
      499
 91
      535
 93
      173
310
00000000406AAAAAAAAAAAAAAAAA806A44101A441010
330
7F
330
C9
330
C7
 94
        0
1001
ACAD
1000
AcRTDxfName
1000
ACAMCONTEXTMODELER
  0
ACAD_PROXY_OBJECT
  5
CE
330
0
100
AcDbProxyObject
 90
      499
 91
      536
 93
       26
310
00008000
330
7F
330
0
 94
        0
1001
ACAD
1000
AcRTDxfName
1000
ACAMDRAWINGMAN
  0
ACAD_PROXY_OBJECT
  5
D2
330
D4
100
AcDbProxyObject
 90
      499
 91
      538
 93
      736
310
9084D2E312E3232336407014B7269BC41100000000000000E03F1EC52B91F85EA10FE1EC52B91F85EA10FD034153471EC52B91F85EA10FC000000FC83D797414650540C000000000000E03F3F2A7C749358940FC000000FC83D79741
 94
        0
1001
ACAD
1000
AcRTDxfName
1000
ASSYSVARS
  0
ACAD_PROXY_OBJECT
  5
D4
102
{ACAD_REACTORS
330
C
102
}
330
C
100
AcDbProxyObject
 90
      499
 91
      540
 93
        2
310
80
360
D2
 94
        0
1001
ACAD
1000
AcRTDxfName
1000
ASAPP
  0
ACAD_PROXY_OBJECT
  5
DA
102
{ACAD_REACTORS
330
C
102
}
330
C
100
AcDbProxyObject
 90
      499
 91
      541
 93
       12
310
9010
330
0
 94
        0
1001
ACAD
1000
AcRTDxfName
1000
AGDICTIONARY
  0
DICTIONARY
  5
9D5
102
{ACAD_REACTORS
330
3B
102
}
100
AcDbDictionary
  3
PH_GRPMEMBERS
350
5704
  0
ACAD_PROXY_OBJECT
  5
C0F
102
{ACAD_REACTORS
330
3C
102
}
330
3C
100
AcDbProxyObject
 90
      499
 91
      543
 93
        9
310
0300
330
C08
330
0
 94
        0
  0
ACAD_PROXY_OBJECT
  5
C10
102
{ACAD_REACTORS
330
3C
102
}
330
3C
100
AcDbProxyObject
 90
      499
 91
      543
 93
        9
310
0300
330
C03
330
C03
 94
        0
  0
ACAD_PROXY_OBJECT
  5
C13
102
{ACAD_REACTORS
330
3C
102
}
330
3C
100
AcDbProxyObject
 90
      499
 91
      543
 93
        9
310
0300
330
C06
330
C06
 94
        0
  0
ACAD_PROXY_OBJECT
  5
C14
102
{ACAD_REACTORS
330
3C
102
}
330
3C
100
AcDbProxyObject
 90
      499
 91
      543
 93
        9
310
0300
330
C03
330
C07
 94
        0
  0
ACAD_PROXY_OBJECT
  5
C15
102
{ACAD_REACTORS
330
3C
102
}
330
3C
100
AcDbProxyObject
 90
      499
 91
      542
 93
       29
310
03208810
330
C05
 94
        0
  0
DICTIONARY
  5
C17
102
{ACAD_REACTORS
330
3B
102
}
100
AcDbDictionary
  3
PH_GRPMEMBERS
350
5705
  0
GROUP
  5
1110
102
{ACAD_REACTORS
330
D
102
}
100
AcDbGroup
300

 70
               3
 71
               0
  0
GROUP
  5
305C
102
{ACAD_REACTORS
330
D
102
}
100
AcDbGroup
300

 70
               3
 71
               0
340
3459
340
345A
340
345B
340
345C
340
345D
340
345E
340
345F
340
3460
340
3461
340
3462
340
3463
340
3464
340
3465
340
3466
340
3467
340
3468
340
3469
340
346A
340
346B
340
346C
340
346D
340
346E
340
346F
340
3470
340
3471
340
3472
340
3473
340
3474
340
3475
340
3476
340
3477
340
3478
340
3479
340
347A
340
347B
340
347C
340
347D
340
347E
340
347F
340
3480
340
3481
340
3482
340
3483
340
3484
340
3485
340
3486
340
3487
340
3488
340
3489
340
348A
340
348B
340
348C
340
348D
340
348E
340
348F
340
3490
340
3491
340
3492
340
3493
340
3494
340
3495
340
3496
340
3497
340
3498
340
3499
340
349A
340
349B
340
349C
340
349D
340
349E
340
349F
340
34A0
340
34A1
340
34A2
340
34A3
340
34A4
340
34A5
340
34A6
340
34A7
340
34A8
340
34A9
340
34AA
340
34AB
340
34AC
340
34AD
340
34AE
340
34AF
340
34B0
340
34B1
340
34B2
340
34B3
340
34B4
340
34B5
340
34B6
340
34B7
340
34B8
340
34B9
340
34BA
340
34BB
340
34BC
340
34BD
340
34BE
340
34BF
340
34C0
340
34C1
340
34C2
340
34C3
340
34C4
340
34C5
340
34C6
340
34C7
340
34C8
340
34C9
340
34CA
340
34CB
340
34CC
340
34CD
340
34CE
340
34CF
340
34D0
340
34D1
340
34D2
340
34D3
340
34D4
340
34D5
340
34D6
340
34D7
340
34D8
340
34D9
340
35B2
340
35BC
340
35C4
340
35CC
340
35D6
340
35E7
340
3630
340
363A
340
3642
340
364A
340
3654
340
365D
340
3665
340
366E
340
3676
340
367A
340
367E
340
3682
340
3686
340
368A
340
368E
340
3692
340
3696
340
369A
340
36C6
340
36D2
340
36E2
340
36E8
340
36EE
340
36F5
340
36FB
340
3709
340
3716
340
3738
340
3751
340
376B
  0
GROUP
  5
305D
102
{ACAD_REACTORS
330
D
102
}
100
AcDbGroup
300

 70
               3
 71
               0
  0
GROUP
  5
305E
102
{ACAD_REACTORS
330
D
102
}
100
AcDbGroup
300

 70
               3
 71
               0
  0
GROUP
  5
305F
102
{ACAD_REACTORS
330
D
102
}
100
AcDbGroup
300

 70
               3
 71
               0
  0
GROUP
  5
3060
102
{ACAD_REACTORS
330
D
102
}
100
AcDbGroup
300

 70
               3
 71
               0
  0
GROUP
  5
3061
102
{ACAD_REACTORS
330
D
102
}
100
AcDbGroup
300

 70
               3
 71
               0
340
3233
340
3234
340
3235
340
3236
340
3237
340
3238
340
3239
340
323A
340
323B
340
323C
340
323D
340
323E
340
323F
340
3240
340
3241
340
3242
340
3243
340
3244
340
3245
340
3246
340
3247
340
3248
340
3249
340
324A
340
324B
340
324C
340
324D
340
324E
340
324F
340
3250
340
3251
340
3252
340
3253
340
3254
340
3255
340
3256
340
3257
340
3258
340
3259
340
325A
340
325B
340
325C
340
325D
340
325E
340
325F
340
3260
340
3261
340
3262
340
3263
340
3264
340
3265
340
3266
340
3267
340
3268
340
3269
340
326A
340
326B
340
326C
340
326D
340
326E
340
326F
340
3270
340
3271
340
3272
340
3273
340
3274
340
3275
340
3276
340
3277
340
3278
340
3279
340
327A
340
327B
340
327C
340
327D
340
327E
340
327F
340
3280
340
3281
340
3282
340
3283
340
3284
340
3285
340
3286
340
3287
340
3288
340
3289
340
328A
340
328B
340
328C
340
328D
340
328E
340
328F
340
3290
340
3291
340
3292
340
3293
340
3294
340
3295
340
3296
340
3297
340
3298
340
3299
340
329A
340
329B
340
329C
340
329D
340
329E
340
329F
340
32A0
340
32A1
340
32A2
340
32A3
340
32A4
340
32A5
340
32A6
340
32A7
340
32A8
340
32A9
340
32AA
340
32AB
340
32AC
340
32AD
340
32AE
340
32AF
340
32B0
340
32B1
340
32B2
340
32B3
340
32B4
340
32B5
340
32B6
340
32B7
340
32B8
340
32B9
340
32BA
340
32BB
340
32BC
340
32BD
340
32BE
340
32BF
340
32C0
340
32C1
340
32C2
340
32C3
340
32C4
340
32C5
340
32C6
340
32C7
340
32C8
340
32C9
340
32CA
340
32CB
340
32CC
340
32CD
340
32CE
340
32CF
340
32D0
340
32D1
340
32D2
340
32D3
340
32D4
340
32D5
340
32D6
340
32D7
340
32D8
340
32D9
340
32DA
340
32DB
340
32DC
340
32DD
340
32DE
340
32DF
340
32E0
340
32E1
340
32E2
340
32E3
340
32E4
340
32E5
340
32E6
340
32E7
340
32E8
340
32E9
340
32EA
340
32EB
340
32EC
340
32ED
340
32EE
340
32EF
340
32F0
340
32F1
340
32F2
340
32F3
340
32F4
340
32F5
340
32F6
340
32F7
340
32F8
340
32F9
340
32FA
340
32FB
340
32FC
340
32FD
340
32FE
340
32FF
340
3300
340
3301
340
3302
340
3303
340
3304
340
3305
340
3306
340
3307
340
3308
340
3309
340
330A
340
330B
340
330C
340
330D
340
330E
340
330F
340
3310
340
3311
340
3312
340
3313
340
3314
340
3315
340
3316
340
3317
340
3318
340
3319
340
331A
340
331B
340
331C
340
331D
340
331E
340
331F
340
3320
340
3321
340
3322
340
3323
340
3324
340
3325
340
3326
340
3327
340
3328
340
3329
340
332A
340
332B
340
332C
340
332D
340
332E
340
332F
340
3330
340
3331
340
3332
340
3333
340
3334
340
3335
340
3336
340
3337
340
3338
340
3339
340
333A
340
333B
340
333C
340
333D
340
333E
340
333F
340
3340
340
3341
340
3342
340
3343
340
3344
340
3345
340
3346
340
3347
340
3348
340
3349
340
334A
340
334B
340
334C
340
334D
340
334E
340
334F
340
3350
340
3351
340
3352
340
3353
340
3354
340
3355
340
3356
340
3357
340
3358
340
3359
340
335A
340
335B
340
335C
340
335D
340
335E
340
335F
340
3360
340
3361
340
3362
340
3363
340
3364
340
3365
340
3366
340
3367
340
3368
340
3369
340
336A
340
336B
340
336C
340
336D
340
336E
340
336F
340
3370
340
3371
340
3372
340
3373
340
3374
340
3375
340
3376
340
3377
340
3378
340
3379
340
337A
340
337B
340
337C
340
337D
340
337E
340
337F
340
3380
340
3381
340
3382
340
3383
340
3384
340
3385
340
3386
340
3387
340
3388
340
3389
340
338A
340
338B
340
338C
340
338D
340
338E
340
338F
340
3390
340
3391
340
3392
340
3393
340
3394
  0
DICTIONARY
  5
37DE
102
{ACAD_REACTORS
330
3B
102
}
100
AcDbDictionary
  3
$PH$AAAASK_E
350
37DF
  3
PH_GRPMEMBERS
350
5707
  0
DICTIONARY
  5
37DF
102
{ACAD_REACTORS
330
37DE
102
}
100
AcDbDictionary
  3
PH_GRPMEMBERS
350
5706
  0
DICTIONARY
  5
3DBC
102
{ACAD_REACTORS
330
3B
102
}
100
AcDbDictionary
  3
PH_GRPMEMBERS
350
5708
  0
DICTIONARY
  5
3E11
102
{ACAD_REACTORS
330
3B
102
}
100
AcDbDictionary
  3
PH_GRPMEMBERS
350
5709
  0
ACAD_PROXY_OBJECT
  5
457B
102
{ACAD_REACTORS
330
3C
102
}
330
3C
100
AcDbProxyObject
 90
      499
 91
      542
 93
       21
310
034808
330
3FD6
 94
        0
  0
ACAD_PROXY_OBJECT
  5
457C
102
{ACAD_REACTORS
330
3C
102
}
330
3C
100
AcDbProxyObject
 90
      499
 91
      542
 93
       21
310
034810
330
3FD6
 94
        0
  0
ACAD_PROXY_OBJECT
  5
457D
102
{ACAD_REACTORS
330
3C
102
}
330
3C
100
AcDbProxyObject
 90
      499
 91
      543
 93
        9
310
0300
330
C01
330
C07
 94
        0
  0
ACAD_PROXY_OBJECT
  5
4DBC
102
{ACAD_REACTORS
330
3C
102
}
330
3C
100
AcDbProxyObject
 90
      499
 91
      542
 93
       29
310
03202808
330
47EA
 94
        0
  0
ACAD_PROXY_OBJECT
  5
4DBD
102
{ACAD_REACTORS
330
3C
102
}
330
3C
100
AcDbProxyObject
 90
      499
 91
      543
 93
        9
310
0300
330
3E04
330
6BD
 94
        0
  0
GROUP
  5
4DF8
102
{ACAD_REACTORS
330
D
102
}
100
AcDbGroup
300

 70
               3
 71
               0
  0
DICTIONARY
  5
56F2
102
{ACAD_REACTORS
330
56F6
102
}
100
AcDbDictionary
  3
$PH$AAAA
350
56F3
  3
PH_GRPMEMBERS
350
570D
  0
DICTIONARY
  5
56F3
102
{ACAD_REACTORS
330
56F2
102
}
100
AcDbDictionary
  3
PH_GRPMEMBERS
350
570C
  0
DICTIONARY
  5
56F6
102
{ACAD_REACTORS
330
3B
102
}
100
AcDbDictionary
  3
$PH$AAAABOP1
350
56F2
  3
PH_GRPMEMBERS
350
570E
  0
DICTIONARY
  5
56FC
102
{ACAD_REACTORS
330
C
102
}
100
AcDbDictionary
  0
DICTIONARY
  5
56FD
102
{ACAD_REACTORS
330
C
102
}
100
AcDbDictionary
  0
DICTIONARY
  5
56FF
102
{ACAD_REACTORS
330
C
102
}
100
AcDbDictionary
  0
ACAD_PROXY_OBJECT
  5
5704
102
{ACAD_REACTORS
330
9D5
102
}
330
9D5
100
AcDbProxyObject
 90
      499
 91
      545
 93
       21
310
024270
330
9CC
330
9CD
330
9CE
330
9CF
330
9D0
330
9D1
330
9D2
330
9D3
330
9D4
330
0
330
0
 94
        0
  0
ACAD_PROXY_OBJECT
  5
5705
102
{ACAD_REACTORS
330
C17
102
}
330
C17
100
AcDbProxyObject
 90
      499
 91
      545
 93
       21
310
0244F0
330
BFB
330
BFC
330
BFD
330
BFF
330
C00
330
C01
330
C02
330
C03
330
C04
330
C05
330
C06
330
C07
330
C08
330
C09
330
C0A
330
C0B
330
C0C
330
C0D
330
C0E
330
0
330
0
 94
        0
  0
ACAD_PROXY_OBJECT
  5
5706
102
{ACAD_REACTORS
330
37DF
102
}
330
37DF
100
AcDbProxyObject
 90
      499
 91
      545
 93
       21
310
0244B0
330
3447
330
3448
330
3449
330
344A
330
344B
330
344C
330
344D
330
344E
330
344F
330
3450
330
3451
330
3452
330
3453
330
3454
330
3455
330
3456
330
3457
330
3458
330
0
330
0
 94
        0
  0
ACAD_PROXY_OBJECT
  5
5707
102
{ACAD_REACTORS
330
37DE
102
}
330
37DE
100
AcDbProxyObject
 90
      499
 91
      545
 93
       13
310
02B0
330
0
330
0
 94
        0
  0
ACAD_PROXY_OBJECT
  5
5708
102
{ACAD_REACTORS
330
3DBC
102
}
330
3DBC
100
AcDbProxyObject
 90
      499
 91
      545
 93
       21
310
0242B0
330
3DB0
330
3DB1
330
3DB2
330
3DB3
330
3DB4
330
3DB5
330
3DB6
330
3DB7
330
3DB8
330
3DB9
330
0
330
0
 94
        0
  0
ACAD_PROXY_OBJECT
  5
5709
102
{ACAD_REACTORS
330
3E11
102
}
330
3E11
100
AcDbProxyObject
 90
      499
 91
      545
 93
       21
310
0242F0
330
3E04
330
3E05
330
3E06
330
3E07
330
3E08
330
3E09
330
3E0A
330
3E0B
330
3E0C
330
3E0D
330
3E0E
330
0
330
0
 94
        0
  0
ACAD_PROXY_OBJECT
  5
570C
102
{ACAD_REACTORS
330
56F3
102
}
330
56F3
100
AcDbProxyObject
 90
      499
 91
      545
 93
       21
310
024170
330
56A5
330
56A6
330
56A7
330
56A8
330
56A9
330
0
330
0
 94
        0
  0
ACAD_PROXY_OBJECT
  5
570D
102
{ACAD_REACTORS
330
56F2
102
}
330
56F2
100
AcDbProxyObject
 90
      499
 91
      545
 93
       21
310
025230
330
56AA
330
56AB
330
56AC
330
56AD
330
56AE
330
56AF
330
56B0
330
56B1
330
56B2
330
56B3
330
56B4
330
56B5
330
56B6
330
56B7
330
56B8
330
56B9
330
56BA
330
56BB
330
56BC
330
56BD
330
56BE
330
56BF
330
56C0
330
56C1
330
56C2
330
56C3
330
56C4
330
56C5
330
56C6
330
56C7
330
56C8
330
56C9
330
56CA
330
56CB
330
56CC
330
56CD
330
56CE
330
56CF
330
56D0
330
56D1
330
56D2
330
56D3
330
56D4
330
56D5
330
56D6
330
56D7
330
56D8
330
56D9
330
56DA
330
56DB
330
56DC
330
56DD
330
56DE
330
56DF
330
56E0
330
56E1
330
56E2
330
56E3
330
56E4
330
56E5
330
56E6
330
56E7
330
56E8
330
56E9
330
56EA
330
56EB
330
56EC
330
56ED
330
56EE
330
56EF
330
56F0
330
56F1
330
0
330
0
 94
        0
  0
ACAD_PROXY_OBJECT
  5
570E
102
{ACAD_REACTORS
330
56F6
102
}
330
56F6
100
AcDbProxyObject
 90
      499
 91
      545
 93
       21
310
024DB0
330
B76
330
B75
330
B74
330
B70
330
B81
330
B77
330
B78
330
B7B
330
B7A
330
B79
330
B84
330
B83
330
B82
330
B80
330
B7F
330
B89
330
B88
330
B9E
330
B9D
330
B73
330
B72
330
B71
330
B6F
330
B8A
330
B8F
330
B7E
330
B7D
330
B7C
330
B96
330
B87
330
B86
330
B85
330
B92
330
B91
330
B90
330
B8E
330
B99
330
B98
330
B97
330
B93
330
BB5
330
B95
330
B8C
330
B8B
330
B94
330
B8D
330
B9A
330
B9B
330
BA2
330
BA1
330
BA0
330
B9F
330
BA3
330
B9C
330
0
330
0
 94
        0
  0
DICTIONARY
  5
5769
100
AcDbDictionary
  3
ACAD_XREC_ROUNDTRIP
350
576A
  0
XRECORD
  5
576A
102
{ACAD_REACTORS
330
5769
102
}
100
AcDbXrecord
102
SHADEPLOT
 70
               0
102
SHADEPLOTRESLEVEL
 70
               2
102
SHADEPLOTCUSTOMDPI
 70
             150
  0
DICTIONARY
  5
576B
100
AcDbDictionary
  3
ACAD_XREC_ROUNDTRIP
350
576C
  0
XRECORD
  5
576C
102
{ACAD_REACTORS
330
576B
102
}
100
AcDbXrecord
102
SHADEPLOT
 70
               0
102
SHADEPLOTRESLEVEL
 70
               2
102
SHADEPLOTCUSTOMDPI
 70
             300
  0
DICTIONARY
  5
576D
102
{ACAD_REACTORS
330
C
102
}
100
AcDbDictionary
  3
DIMASSOC
350
576E
  3
PROJECTNAME
350
576F
  0
DICTIONARYVAR
  5
576E
102
{ACAD_REACTORS
330
576D
102
}
100
DictionaryVariables
280
               0
  1
1
  0
DICTIONARYVAR
  5
576F
102
{ACAD_REACTORS
330
576D
102
}
100
DictionaryVariables
280
               0
  1

  0
ENDSEC
  0
EOF
